+ ตอบกลับกระทู้
สรุปผลการค้นหา 1 ถึง 5 จากทั้งหมด 5
  1. #1
    Administrators รูปส่วนตัว Duckload.us
    สมัครเมื่อ
    Dec 2010
    โพสต์
    115,767
    Thanks
    7
    Thanked 122,115 Times in 54,817 Posts

    Question [ฝรั่ง]-The Hunt (2020) เกมล่าคน -Blu-ray.AC-3.1080p.-[Soundtrack บรรยายไทย] (หนังที่เคยถูกแบนเพราะเหตุกราดยิง)




    The Hunt นั้นเล่าเรื่องราวของคนแปลกหน้า 12 คนที่ตื่นขึ้นมาโดยที่พวกเขาไม่รู้จักกันมาก่อน และไม่รู้ว่าอยู่ที่ไหน และไม่รู้ว่าพวกเขาทำไมถึงถูกเลือกมา แต่ที่แน่ๆ พวกเขามีสิ่งเดียวที่เหมือนก็คือการเป็นส่วนหนึ่งของ เกมล่าที่ชื่อว่า The Hunt หนึ่งในเรื่องราวทางอินเทอร์เน็ตที่พูดถึงเหล่าชนชั้ นสูงที่จับคนมาเพื่อล่าแทนการล่าสัตว์นั่นเอง แต่แล้วแผนการของเหล่ากลุ่มชนชั้นสูงนั้นก็ดูเหมือนจ ะเริ่มผิดแผกไปจากเดิมเนื่องจาก Crystal หนึ่งในผู้ถูกล่านั้นรู้ทันแผนการและได้มาเจอกับหญิง ลึกลับคนหนึ่งที่เป็นจุดศูนย์กลางของเรื่องราวทั้งหม ดนั่นเอง

    Universal เลือกที่จะยกเลิกการฉายหนัง The Hunt หลังเกิดเหตุกราดยิงขึ้นพร้อม ๆ กัน 2 เหตุการณ์ในสหรัฐฯ จนสร้างความโศกเศร้าไปทั่วประเทศ ซึ่งบริษัทจัดจำหน่ายก็มองว่าการฉายหนังที่มีเนื้อหา เกี่ยวกับเกมการ ล่ามนุษย์ ในช่วงนี้น่าจะเป็นเรื่องไม่เหมาะสม

    โดย The Hunt มีกำหนดฉายในวันที่ 27 ก.ย. ที่จะถึงนี้ แต่ล่าสุด Blumhouse Productions ได้ประกาศยกเลิกการฉายหนังเรื่องนี้แล้ว หมายความว่า Universal ได้หยุดโปรโมตหนังทันที และตอนนี้ก็ยังมีข้อมูลชัดเชนว่าหนังจะได้ฉายเมื่อไห ร่กันแน่ หรือสุดท้ายจะได้ฉายรึเปล่า?
    ซึ่งการตัดสินใจครั้งนี้เกิดขึ้นหลังเกิดเหตุกราดยิง จนมีผู้เสียชีวิตที่เดย์ตัน และเอลปาโซ พร้อม ๆ กันจนสร้างความเศร้าสลดให้กับคนทั้งชาติ
    แต่ไม่เท่านั้น The Hunt ยังถูกกลุ่มผู้สนับสนุนประธานาธิบดี โดนัลด์ ทรัมป์ ออกมากกล่าวหาว่าหนังพยายามสร้างภาพให้กลุ่ม ชนชั้นสูง ในเรื่องดูเป็นพวกเสรีนิยมที่ร่ำรวย ส่วนกลุ่มตัวละครที่ตื่นขึ้นมาพบว่าตัวเองกลายเป็นเห ยื่อในเกมกีฬาล่ามนุษย์ก็ดูเหมือนกลุ่มคนอนุรักษ์นิย มหาเช่ากินค่ำ ซึ่งเป็นผู้สนับสนุนประธานาธิบดี ทรัมป์ นั่นเอง

    แม้แต่ตัวของ ทรัมป์ เองก็ยังออกมาทวีตถึงหนังเรื่องนี้ โดยเขาไม่ได้เขียนชื่อหนังออกมาตรง ๆ แต่บอกว่ามีหนังเรื่องหนึ่งที่มีเนื้อหา เหยียด และ กล่าวหาเพื่อสร้างความวุ่นวาย ให้กับสังคม .... หนังที่กำลังจะฉายเรื่องหนึ่งมีเนื้อหาป้ายสี และสร้างความวุ่นวาย คนพวกนี้ส่งเสริมความรุนแรง และกลับไปกล่าวหาคนอื่น พวกนี้นี่แหละพวกเหยียดตัวจริง และเป็นพวกที่มีแต่ทำให้ประเทศเราแย่

    โดยก่อนหน้านี้ เดมอน ลินเดอร์ลอฟ กับ นิค คอส ที่เป็นคนเขียนบทได้ยืนยันว่าหนังของพวกเขาไม่ได้ขาย ความรุนแรง หรือความเกลียดชัง หนังไม่ได้ดาร์กอะไรขนาดนั้น โดยเฉพาะถ้าคุณข้ามประเด็นเกี่ยวกับคนล่าคนไปได้ คนเขียนบทบอก และยืนยันว่า The Hunt ให้อารมณ์ตลกร้าย และเสียดสีมากกว่า

    General
    Unique ID : 106706231286787541891500809273533613972 (0x5046DF634A35F7245D0238F5755D4794)
    Complete name : C:UsersPOKDocumentsThe Hunt (2020) เกมล่าคน (หนังที่เคยถูกแบนเพราะเหตุกราดยิง)[1080ip][พากย์อังกฤษ5.1][SUBไทย + อังกฤษ]The Hunt 2020 1080p DDP5.1 H.264sub.TH-SLM.mkv
    Format : Matroska
    Format version : Version 4
    File size : 3.70 GiB
    Duration : 1 h 30 min
    Overall bit rate : 5 881 kb/s
    Movie name : The Hunt 2020 1080p-SlishMay
    Encoded date : UTC 2020-06-03 09:33:46
    Writing application : mkvmerge v44.0.0 ('Domino') 64-bit
    Writing library : libebml v1.3.10 + libmatroska v1.5.2

    Video
    ID : 1
    Format : AVC
    Format/Info : Advanced Video Codec
    Format profile : [email protected]
    Format settings : CABAC / 4 Ref Frames
    Format settings, CABAC : Yes
    Format settings, Reference fra : 4 frames
    Codec ID : V_MPEG4/ISO/AVC
    Duration : 1 h 30 min
    Bit rate mode : Constant
    Bit rate : 5 206 kb/s
    Nominal bit rate : 10 000 kb/s
    Width : 1 920 pixels
    Height : 800 pixels
    Display aspect ratio : 2.40:1
    Frame rate mode : Constant
    Frame rate : 23.976 (24000/1001) FPS
    Color space : YUV
    Chroma subsampling : 4:2:0
    Bit depth : 8 bits
    Scan type : Progressive
    Bits/(Pixel*Frame) : 0.141
    Stream size : 3.27 GiB (89%)
    Language : English
    Default : Yes
    Forced : No
    Color range : Limited
    Color primaries : BT.709
    Transfer characteristics : BT.709
    Matrix coefficients : BT.709

    Audio
    ID : 2
    Format : E-AC-3
    Format/Info : Enhanced AC-3
    Commercial name : Dolby Digital Plus
    Codec ID : A_EAC3
    Duration : 1 h 30 min
    Bit rate mode : Constant
    Bit rate : 640 kb/s
    Channel(s) : 6 channels
    Channel layout : L R C LFE Ls Rs
    Sampling rate : 48.0 kHz
    Frame rate : 31.250 FPS (1536 SPF)
    Compression mode : Lossy
    Stream size : 412 MiB (11%)
    Language : English
    Service kind : Complete Main
    Default : Yes
    Forced : No

    Text #1
    ID : 3
    Format : PGS
    Muxing mode : zlib
    Codec ID : S_HDMV/PGS
    Codec ID/Info : Picture based subtitle format used on BDs/HD-DVDs
    Duration : 1 h 23 min
    Bit rate : 38.8 kb/s
    Count of elements : 2372
    Stream size : 23.3 MiB (1%)
    Title : Sarabun
    Language : Thai
    Default : Yes
    Forced : No

    Text #2
    ID : 4
    Format : PGS
    Muxing mode : zlib
    Codec ID : S_HDMV/PGS
    Codec ID/Info : Picture based subtitle format used on BDs/HD-DVDs
    Duration : 1 h 23 min
    Bit rate : 35.4 kb/s
    Count of elements : 2372
    Stream size : 21.2 MiB (1%)
    Language : Thai
    Default : No
    Forced : No

    Text #3
    ID : 5
    Format : UTF-8
    Codec ID : S_TEXT/UTF8
    Codec ID/Info : UTF-8 Plain Text
    Duration : 1 h 22 min
    Bit rate : 57 b/s
    Count of elements : 1278
    Stream size : 34.9 KiB (0%)
    Language : English
    Default : No
    Forced : No

    Text #4
    ID : 6
    Format : UTF-8
    Codec ID : S_TEXT/UTF8
    Codec ID/Info : UTF-8 Plain Text
    Duration : 1 h 29 min
    Bit rate : 62 b/s
    Count of elements : 1572
    Stream size : 40.9 KiB (0%)
    Title : SDH
    Language : English
    Default : No
    Forced : No





    Download: cornfile
    http://cornfile.com/5e3drn8tgco2
    Download: mekafile
    http://www.mekafile.com/dl.php?f=0324fac9RRdn

  2. The Following 2 Users Say Thank You to Duckload.us For This Useful Post:

    gaszolineskywalker (06-08-2020), Wesker_TOT (06-06-2020)

  3. #2
    Senior Member
    สมัครเมื่อ
    Jul 2013
    โพสต์
    696
    Thanks
    0
    Thanked 0 Times in 0 Posts
    ขอบคุณครับ

  4. #3
    Senior Member
    สมัครเมื่อ
    Dec 2013
    โพสต์
    2,120
    Thanks
    4,040
    Thanked 0 Times in 0 Posts
    ขอบคุณนะครับ...

  5. #4
    Senior Member
    สมัครเมื่อ
    Jul 2013
    โพสต์
    696
    Thanks
    0
    Thanked 0 Times in 0 Posts
    ขอบคุณครับ

  6. #5
    Senior Member
    สมัครเมื่อ
    Oct 2012
    โพสต์
    1,142
    Thanks
    2,077
    Thanked 0 Times in 0 Posts
    ขอบคุณครับ

+ ตอบกลับกระทู้

ข้อมูลกระทู้

Users Browsing this Thread

ในขณะนี้มี 1 ท่านดูกระทู้อยู่. (0 สมาชิกและ 1 ผู้เยี่ยมชม)

     

กฎการโพสต์ข้อความ

  • ท่าน ไม่สามารถ ตั้งกระทู้ใหม่ได้
  • ท่าน ไม่สามารถ ตอบกระทู้ได้
  • ท่าน ไม่สามารถ แนบไฟล์ได้
  • ท่าน ไม่สามารถ แก้ไขข้อความโพสต์ได้
  • BB code สถานะ เปิด
  • Smilies สถานะ เปิด
  • [IMG] สถานะ เปิด
  • HTML สถานะ ปิด