+ ตอบกลับกระทู้
สรุปผลการค้นหา 1 ถึง 4 จากทั้งหมด 4
  1. #1
    Administrators รูปส่วนตัว Duckload.us
    สมัครเมื่อ
    Dec 2010
    โพสต์
    115,841
    Thanks
    7
    Thanked 122,274 Times in 54,854 Posts

    Question [ฮ่องกง]-[18+] Port of Call (2015) กัว ฟู่ เฉิง ในบทบาทสุดโทรมที่ไม่ค่อยเคยเห็น นางเอก เจสซี่ ลี้ (chun xiachun xia) เปลือยเรื่องนี้ในวัยเพียง 22 ปี ห้ามพลาด -Blu-ray.H.264.1080p. [Modified]-[Soundtrack บรรยายไทย (แปล)]



    Port of Call คือภาพยนตร์อาชญากรรมฮ่องกงปี 2015 ที่เขียนบทแก้ไขและกำกับโดยฟิลลิ่ง ยูง
    และนำแสดงโดย กัว ฟู่ เฉิง ในบทนักสืบตำรวจเก๋าที่ช่วยแก้ปัญหาฆาตกรรมลึกลับ ด้วยวิธีการที่ผิดปกติเพื่อพิสูจน์ความเชื่อของคุณเก ี่ยวกับความบริสุทธิ์ในธรรมชาติของมนุษย์

    ภาพยนตร์เรื่องนี้ตั้งอยู่บนคดีฆาตกรรมที่เกิดขึ้นจร ิง เกี่ยวกับศพแยกชิ้นส่วนของโสเภณีหญิงอายุ 16 ปีถูกพบที่ฮ่องกงในปี 2008

    Profile
    Name: 春 夏 / Chun Xia
    English name: Jessie Li
    Real name: 李 俊 杰 / Li Jun Jie
    Profession: Actress
    Birthdate: 1992-Dec-05 (age 27)
    Birthplace: Yunnan, China
    Agency: Easy Entertainment

    แม้จะเป็นภาพยนตร์สารคดีเรื่องแรกของเธอ เจสซี หลี่ ชุน เซี่ย นักแสดงหญิงชาวจีนคนใหม่ได้ทำงานอย่างมืออาชีพในภาพย นตร์เรื่องแรกของเธอ Port of Call ซึ่งเธอต้องทำฉากเปลือยเต็มหน้าอก หลายครั้งกับไมเคิลหนิงและเพื่อนร่วมงานของเธอ

    การแสดงอันน่าทึ่งของเธอในภาพยนตร์สยองขวัญอาชญากรรม ของฮ่องกงทำให้เธอได้รับรางวัลนักแสดงหญิงยอดเยี่ยมใ นงานเทศกาลภาพยนตร์นานาชาติ Bucheon และได้รับการเสนอชื่อเข้าชิงรางวัล Best Newcomer ในงาน Golden Horse Awards ครั้งที่ 52

    เมื่อนักแสดงหญิงวัย 22 ปีถูกถามถึงประสบการณ์ของเธอในการแสดงนู้ดในภาพยนตร์ สารคดีเรื่องเดบิวต์ของเธอและสิ่งที่เธอทำเพื่อเตรีย มตัวรับบทนักแสดงหญิงนั้นตอบ ไม่มีอะไรมากที่จะเตรียมความพร้อมจริง ๆ

    เพราะฉันถือว่าไมเคิลเป็นเพื่อนของฉันดังนั้นฉันจึงเ ชื่อใจเขาฉันรู้สึกเหมือนว่าฉันไม่จำเป็นต้องสร้างแน วป้องกันเพราะทุกคนมีความเป็นมืออาชีพ นักแสดงหญิงกล่าวระหว่างการสัมภาษณ์ที่ Crowne Plaza Causeway Bay, Hong ฮ่องกง

    เจสซี หลี่รับบทเป็นโสเภณีชื่อ วัง เจีย เหม่ย ซึ่งถูกฆาตกรรมอย่างไร้ความปราณีและถูกทิ้งออกจากรถบ รรทุก ที่มีคนขับคือ Chi Chung Ting (รับบทโดยไมเคิล หนิง) ในภาพยนตร์เรื่องนี้

    กำกับโดย Philip Yung Port of Call เป็นเหตุการณ์จริงที่หญิงสาวคนหนึ่งชื่อ Wang Jia Mei (Jessie Lie) ถูกสังหารอย่างไร้ความปราณีและศพถูกแยกชิ้นส่วนโดย Chi Chung Ting (Michael Ning) เจ้าหน้าที่ Chong (กัว ฟู่ เฉิง) ผู้รับผิดชอบคดีนี้มีเป้าหมายที่จะเปิดเผยเหตุผลของก ารฆาตกรรมที่โหดร้ายให้สำเร็จ

    Format : MPEG-4
    Format profile : Base Media
    Codec ID : isom (isom/iso2/avc1/mp41)
    File size : 1.74 GiB
    Duration : 1 h 37 min
    Overall bit rate : 2 543 kb/s
    Writing application : Lavf58.35.100

    Video
    ID : 1
    Format : AVC
    Format/Info : Advanced Video Codec
    Format profile : [email protected]
    Format settings : CABAC / 4 Ref Frames
    Format settings, CABAC : Yes
    Format settings, Reference frames : 4 frames
    Codec ID : avc1
    Codec ID/Info : Advanced Video Coding
    Duration : 1 h 37 min
    Bit rate : 2 250 kb/s
    Width : 1 920 pixels
    Height : 1 024 pixels
    Display aspect ratio : 1.85:1
    Frame rate mode : Constant
    Frame rate : 24.000 FPS
    Color space : YUV
    Chroma subsampling : 4:2:0
    Bit depth : 8 bits
    Scan type : Progressive
    Bits/(Pixel*Frame) : 0.048
    Stream size : 1.54 GiB (88%)
    Writing library : x264 core 158
    Encoding settings : cabac=1 / ref=4 / deblock=1:-1:-1 / analyse=0x3:0x133 / me=umh / subme=9 / psy=1 / psy_rd=1.00:0.15 / mixed_ref=1 / me_range=24 / chroma_me=1 / trellis=2 / 8x8dct=1 / cqm=0 / deadzone=21,11 / fast_pskip=0 / chroma_qp_offset=-3 / threads=12 / lookahead_threads=1 / sliced_threads=0 / nr=0 / decimate=1 / interlaced=0 / bluray_compat=0 / constrained_intra=0 / bframes=3 / b_pyramid=2 / b_adapt=2 / b_bias=0 / direct=3 / weightb=1 / open_gop=0 / weightp=2 / keyint=250 / keyint_min=23 / scenecut=40 / intra_refresh=0 / rc_lookahead=60 / rc=2pass / mbtree=1 / bitrate=2250 / ratetol=1.0 / qcomp=0.60 / qpmin=0 / qpmax=69 / qpstep=4 / cplxblur=20.0 / qblur=0.5 / vbv_maxrate=31250 / vbv_bufsize=31250 / nal_hrd=none / filler=0 / ip_ratio=1.40 / aq=1:1.00
    Codec configuration box : avcC

    Audio
    ID : 2
    Format : AAC LC
    Format/Info : Advanced Audio Codec Low Complexity
    Codec ID : mp4a-40-2
    Duration : 1 h 37 min
    Duration_LastFrame : -3 ms
    Bit rate mode : Constant
    Bit rate : 288 kb/s
    Channel(s) : 6 channels
    Channel layout : C L R Ls Rs LFE
    Sampling rate : 96.0 kHz
    Frame rate : 93.750 FPS (1024 SPF)
    Compression mode : Lossy
    Stream size : 201 MiB (11%)
    Default : Yes
    Alternate group : 1





    Download: cornfile
    http://cornfile.com/rxz5vrh9w0dr
    Download: mekafile
    http://www.mekafile.com/dl.php?f=ebbe28c9RXjB

  2. The Following 4 Users Say Thank You to Duckload.us For This Useful Post:

    RangerZ (06-06-2020), spidertoon (06-06-2020), Tatum03 (06-06-2020), Wesker_TOT (06-06-2020)

  3. #2
    Senior Member
    สมัครเมื่อ
    Dec 2013
    โพสต์
    2,121
    Thanks
    4,041
    Thanked 0 Times in 0 Posts
    ขอบคุณครับ...

  4. #3
    Senior Member
    สมัครเมื่อ
    Oct 2013
    ที่อยู่
    Thailand
    โพสต์
    1,344
    Thanks
    1,215
    Thanked 0 Times in 0 Posts
    ขอบคุณมาก

  5. #4
    Senior Member
    สมัครเมื่อ
    Oct 2012
    โพสต์
    1,142
    Thanks
    2,077
    Thanked 0 Times in 0 Posts
    cornfile ผมดาวน์โหลดแล้วไฟล์เสีย แตกไฟล์ไม่ได้ครับ

+ ตอบกลับกระทู้

ข้อมูลกระทู้

Users Browsing this Thread

ในขณะนี้มี 1 ท่านดูกระทู้อยู่. (0 สมาชิกและ 1 ผู้เยี่ยมชม)

     

กฎการโพสต์ข้อความ

  • ท่าน ไม่สามารถ ตั้งกระทู้ใหม่ได้
  • ท่าน ไม่สามารถ ตอบกระทู้ได้
  • ท่าน ไม่สามารถ แนบไฟล์ได้
  • ท่าน ไม่สามารถ แก้ไขข้อความโพสต์ได้
  • BB code สถานะ เปิด
  • Smilies สถานะ เปิด
  • [IMG] สถานะ เปิด
  • HTML สถานะ ปิด