+ ตอบกลับกระทู้
สรุปผลการค้นหา 1 ถึง 4 จากทั้งหมด 4
  1. #1
    Administrators รูปส่วนตัว Duckload.us
    สมัครเมื่อ
    Dec 2010
    โพสต์
    115,767
    Thanks
    7
    Thanked 122,119 Times in 54,818 Posts

    Angry [ฝรั่ง]-Polaroid.2019.โพลารอยด์ ถ่ายติดตาย.1080p.BluRay.H264.[พากย์ไทยมาสเตอร์+อังกฤษ DTS-5.1][ไม่มีบรรยาย]-Blu-ray.H.264.1080p. [Modified]-[พากย์ไทย]





    คุณกล้าถ่ายรูปหรือเปล่า ? หากว่าทุกคนในรูปจะต้องตาย ! เบิร์ด ฟิทเชอร์ ได้พบกับกล้องโพลารอยด์ตัวหนึ่งในร้านขายของเก่า
    แต่แล้วเธอกลับพบว่าผู้ที่ถูกถ่ายด้วยกล้องตัวนี้ล้ว นแต่จะต้องตายอย่างน่าสยดสยอง เธอและเพื่อน ๆ
    จึงต้องร่วมมือกันเพื่อหาทางออกจากสถานการณ์นี้ก่อนท ี่พวกเธอทุกคนจะถูกมันฆ่า !

    Format : Matroska
    Format version : Version 4
    File size : 6.83 GiB
    Duration : 1 h 27 min
    Overall bit rate : 11.1 Mb/s
    Movie name : Polaroid.2019.1080p.BluRay.x264-GEEJAA
    Encoded date : UTC 2020-06-06 10:59:29
    Writing application : mkvmerge v6.0.0 ('Coming Up For Air') built on Jan 20 2013 09:52:00
    Writing library : libebml v1.3.0 + libmatroska v1.4.0

    Video
    ID : 1
    Format : AVC
    Format/Info : Advanced Video Codec
    Format profile : [email protected]
    Format settings : CABAC / 5 Ref Frames
    Format settings, CABAC : Yes
    Format settings, Reference frames : 5 frames
    Codec ID : V_MPEG4/ISO/AVC
    Duration : 1 h 27 min
    Bit rate : 9 153 kb/s
    Width : 1 920 pixels
    Height : 800 pixels
    Display aspect ratio : 2.40:1
    Frame rate mode : Constant
    Frame rate : 24.000 FPS
    Color space : YUV
    Chroma subsampling : 4:2:0
    Bit depth : 8 bits
    Scan type : Progressive
    Bits/(Pixel*Frame) : 0.248
    Stream size : 5.49 GiB (80%)
    Writing library : x264 core 157 r2969 d4099dd
    Encoding settings : cabac=1 / ref=5 / deblock=1:0:0 / analyse=0x3:0x113 / me=umh / subme=8 / psy=1 / psy_rd=1.00:0.00 / mixed_ref=1 / me_range=16 / chroma_me=1 / trellis=2 / 8x8dct=1 / cqm=0 / deadzone=21,11 / fast_pskip=0 / chroma_qp_offset=-2 / threads=25 / lookahead_threads=4 / sliced_threads=0 / nr=0 / decimate=1 / interlaced=0 / bluray_compat=0 / constrained_intra=0 / bframes=3 / b_pyramid=2 / b_adapt=1 / b_bias=0 / direct=1 / weightb=1 / open_gop=0 / weightp=2 / keyint=250 / keyint_min=24 / scenecut=40 / intra_refresh=0 / rc_lookahead=50 / rc=2pass / mbtree=1 / bitrate=9153 / ratetol=1.0 / qcomp=0.60 / qpmin=0 / qpmax=69 / qpstep=4 / cplxblur=20.0 / qblur=0.5 / ip_ratio=1.40 / aq=1:1.00
    Default : Yes
    Forced : No
    Statistics Tags Issue : mkvmerge v24.0.0 ('Beyond The Pale') 32-bit 2019-05-17 20:30:37 / mkvmerge v6.0.0 ('Coming Up For Air') built on Jan 20 2013 09:52:00 2020-06-06 10:59:29
    FromStats_BitRate : 9151321
    FromStats_Duration : 01:27:59.584000000
    FromStats_FrameCount : 126710
    FromStats_StreamSize : 6039396580

    Audio #1
    ID : 2
    Format : AC-3
    Format/Info : Audio Coding 3
    Commercial name : Dolby Digital
    Codec ID : A_AC3
    Duration : 1 h 27 min
    Bit rate mode : Constant
    Bit rate : 448 kb/s
    Channel(s) : 6 channels
    Channel layout : L R C LFE Ls Rs
    Sampling rate : 48.0 kHz
    Frame rate : 31.250 FPS (1536 SPF)
    Bit depth : 16 bits
    Compression mode : Lossy
    Stream size : 282 MiB (4%)
    Language : Thai
    Service kind : Complete Main
    Default : Yes
    Forced : Yes

    Audio #2
    ID : 3
    Format : DTS
    Format/Info : Digital Theater Systems
    Codec ID : A_DTS
    Duration : 1 h 27 min
    Bit rate mode : Constant
    Bit rate : 1 509 kb/s
    Channel(s) : 6 channels
    Channel layout : C L R Ls Rs LFE
    Sampling rate : 48.0 kHz
    Frame rate : 93.750 FPS (512 SPF)
    Bit depth : 24 bits
    Compression mode : Lossy
    Stream size : 950 MiB (14%)
    Language : English
    Default : No
    Forced : No
    Statistics Tags Issue : mkvmerge v24.0.0 ('Beyond The Pale') 32-bit 2019-05-17 20:30:37 / mkvmerge v6.0.0 ('Coming Up For Air') built on Jan 20 2013 09:52:00 2020-06-06 10:59:29
    FromStats_BitRate : 1508999
    FromStats_Duration : 01:27:59.606000000
    FromStats_FrameCount : 494963
    FromStats_StreamSize : 995865556

    Menu
    00:00:00.000 : en:00:00:00.000
    00:07:03.333 : en:00:07:03.333
    00:12:44.708 : en:00:12:44.708
    00:20:39.792 : en:00:20:39.792
    00:27:07.833 : en:00:27:07.833
    00:30:51.125 : en:00:30:51.125
    00:34:17.667 : en:00:34:17.667
    00:39:37.250 : en:00:39:37.250
    00:44:51.875 : en:00:44:51.875
    00:48:46.167 : en:00:48:46.167
    00:53:24.208 : en:00:53:24.208
    00:59:33.542 : en:00:59:33.542
    01:07:27.917 : en:01:07:27.917
    01:12:48.917 : en:01:12:48.917
    01:17:49.000 : en:01:17:49.000
    01:23:02.125 : en:01:23:02.125





    Download: cornfile
    6.8 GB
    http://cornfile.com/07kpruzd3hb5
    1.9 GB
    http://cornfile.com/1ka1jhb3m040

    Download: mekafile
    meka อัพไม่ได้ครับ หนังค่าย M

  2. The Following 5 Users Say Thank You to Duckload.us For This Useful Post:

    apichartdear (06-07-2020), gaszolineskywalker (06-08-2020), Jodz14 (06-08-2020), noi54 (06-07-2020), Wesker_TOT (06-07-2020)

  3. #2
    Senior Member
    สมัครเมื่อ
    Dec 2013
    โพสต์
    2,120
    Thanks
    4,040
    Thanked 0 Times in 0 Posts
    ขอบคุณครับ...

  4. #3
    Senior Member
    สมัครเมื่อ
    Jul 2013
    โพสต์
    696
    Thanks
    0
    Thanked 0 Times in 0 Posts
    ขอบคุณครับ

  5. #4
    Senior Member
    สมัครเมื่อ
    Oct 2012
    โพสต์
    1,142
    Thanks
    2,077
    Thanked 0 Times in 0 Posts
    ขอบคุณครับ พากย์ไทยเท่านั้น

+ ตอบกลับกระทู้

ข้อมูลกระทู้

Users Browsing this Thread

ในขณะนี้มี 1 ท่านดูกระทู้อยู่. (0 สมาชิกและ 1 ผู้เยี่ยมชม)

     

กฎการโพสต์ข้อความ

  • ท่าน ไม่สามารถ ตั้งกระทู้ใหม่ได้
  • ท่าน ไม่สามารถ ตอบกระทู้ได้
  • ท่าน ไม่สามารถ แนบไฟล์ได้
  • ท่าน ไม่สามารถ แก้ไขข้อความโพสต์ได้
  • BB code สถานะ เปิด
  • Smilies สถานะ เปิด
  • [IMG] สถานะ เปิด
  • HTML สถานะ ปิด