+ ตอบกลับกระทู้
สรุปผลการค้นหา 1 ถึง 3 จากทั้งหมด 3
  1. #1
    Administrators รูปส่วนตัว Duckload.us
    สมัครเมื่อ
    Dec 2010
    โพสต์
    115,767
    Thanks
    7
    Thanked 122,115 Times in 54,817 Posts

    Question [ฝรั่ง]-Mary (2019) เรือปีศาจ-[พากย์ไทยมาสเตอร์ ไม่มีบรรยาย]-WEB-DL.H.264.1080p. [Master]-[พากย์ไทย]



    เรื่องย่อ Mary เรือปีศาจ
    ระวังเรือของคุณให้ดี! Mary เพราะแรงอาถรรพ์จะทำให้ทริปฤดูร้อนกลายเป็นทริปสุดท้ ายของ ชีวิต ผลงานสุดสะพรึงจากผู้สร้าง Oculus และมือเขียนบท The Shallows เรื่องราวของ เดวิด (แกรี่ โอลด์แมน) ได้ซื้อเรือหรูลำหนึ่งที่ชื่อว่า แมรี่ เขาหวังว่าเรือลำนี้จะทำให้ชีวิตของครอบครัวเขาดีกว่ าเดิมโดยไม่รู้เรื่องอดีตอันน่าขนลุกของมัน เมื่อพวกเขานำเรือออกทริป ก็เกิดเหตุการณ์เหนือธรรมชาติคอยคุกคามชีวิตของครอบค รัวเขาจนทำให้เรือเดินออกนอกเส้นทาง และแล้วพวกเขาก็ต้องเผชิญหน้ากับความสยองครั้งใหญ่กล างทะเลลึก ซึ่งมันอาจจะเป็นทริปสุดท้ายของชีวิต!

    Format : Matroska
    Format version : Version 2
    File size : 2.00 GiB
    Duration : 1 h 24 min
    Overall bit rate mode : Constant
    Overall bit rate : 3 375 kb/s
    Movie name : Mary (2019) เรือปีศาจ
    Encoded date : UTC 2020-06-06 02:51:32
    Writing application : DVDFab 11.0.3.1
    Writing library : libebml v1.3.4 + libmatroska v1.4.5

    Video
    ID : 1
    Format : AVC
    Format/Info : Advanced Video Codec
    Format profile : [email protected]
    Format settings : CABAC / 4 Ref Frames
    Format settings, CABAC : Yes
    Format settings, Reference frames : 4 frames
    Format settings, GOP : M=3, N=24
    Codec ID : V_MPEG4/ISO/AVC
    Duration : 1 h 24 min
    Bit rate mode : Constant
    Bit rate : 3 181 kb/s
    Nominal bit rate : 3 683 kb/s
    Width : 1 920 pixels
    Height : 800 pixels
    Display aspect ratio : 2.40:1
    Frame rate mode : Constant
    Frame rate : 23.976 (24000/1001) FPS
    Color space : YUV
    Chroma subsampling : 4:2:0
    Bit depth : 8 bits
    Scan type : Progressive
    Bits/(Pixel*Frame) : 0.086
    Stream size : 1.89 GiB (94%)
    Default : Yes
    Forced : No
    Color range : Limited
    Color primaries : BT.709
    Transfer characteristics : BT.709
    Matrix coefficients : BT.709

    Audio
    ID : 2
    Format : AC-3
    Format/Info : Audio Coding 3
    Commercial name : Dolby Digital
    Codec ID : A_AC3
    Duration : 1 h 24 min
    Bit rate mode : Constant
    Bit rate : 192 kb/s
    Channel(s) : 2 channels
    Channel layout : L R
    Sampling rate : 48.0 kHz
    Frame rate : 31.250 FPS (1536 SPF)
    Bit depth : 16 bits
    Compression mode : Lossy
    Stream size : 117 MiB (6%)
    Service kind : Complete Main
    Default : Yes
    Forced : No





    Download: cornfile
    http://cornfile.com/7azhobwz59ix
    Download: mekafile
    http://www.mekafile.com/dl.php?f=vGb625c9UULA

  2. The Following 3 Users Say Thank You to Duckload.us For This Useful Post:

    gaszolineskywalker (06-08-2020), Jodz14 (06-08-2020), noi54 (06-07-2020)

  3. #2
    Senior Member
    สมัครเมื่อ
    Jul 2013
    โพสต์
    696
    Thanks
    0
    Thanked 0 Times in 0 Posts
    ขอบคุณครับ

  4. #3
    Senior Member
    สมัครเมื่อ
    Oct 2012
    โพสต์
    1,142
    Thanks
    2,077
    Thanked 0 Times in 0 Posts
    ขอบคุณครับ

+ ตอบกลับกระทู้

ข้อมูลกระทู้

Users Browsing this Thread

ในขณะนี้มี 1 ท่านดูกระทู้อยู่. (0 สมาชิกและ 1 ผู้เยี่ยมชม)

     

กฎการโพสต์ข้อความ

  • ท่าน ไม่สามารถ ตั้งกระทู้ใหม่ได้
  • ท่าน ไม่สามารถ ตอบกระทู้ได้
  • ท่าน ไม่สามารถ แนบไฟล์ได้
  • ท่าน ไม่สามารถ แก้ไขข้อความโพสต์ได้
  • BB code สถานะ เปิด
  • Smilies สถานะ เปิด
  • [IMG] สถานะ เปิด
  • HTML สถานะ ปิด