+ ตอบกลับกระทู้
สรุปผลการค้นหา 1 ถึง 3 จากทั้งหมด 3
  1. #1
    Administrators รูปส่วนตัว Duckload.us
    สมัครเมื่อ
    Dec 2010
    โพสต์
    115,767
    Thanks
    7
    Thanked 122,115 Times in 54,817 Posts

    Question [ฝรั่ง]-[* ใหม่ Netflix *] The Last Days of American Crime (2020) : ปล้นสั่งลา [เสียงไทย 5.1 + เสียงอังกฤษ 5.1] [บรรยายไทย + อังกฤษ] [เสียง + ซับไทย Master From Netflix + ซับ PGS คมชัด]-WEB-DL.H.264.1080p. [Modified]-[พากย์ไทย บรรยายไทย]



    สำหรับแฟนหนังแอ็กชันที่คิดถึงหนังมัน ๆ ดิบ ๆ อย่างในหนัง Taken 2 (2012), Taken 3 (2014) และ Transporter 3 (2008) ผู้กำกับ Olivier Megaton เจ้าของผลงานหนังบู๊สุดมันหลายเรื่องที่กล่าวไป กลับมากับหนังเรื่องใหม่ที่สตรีมมิงทาง Netflix กับ ปล้นสั่งลา หรือ The Last Days of American Crime

    The Last Days of American Crime ดัดแปลงจากนิยายภาพเรื่อง Deadly Class ของ Rick Remender และ Greg Tocchini เรื่องราวเกี่ยวกับโลกอนาคตอันใกล้ที่รัฐบาลสหรัฐฯ เตรียมใช้เทคโนโลยีชนิดใหม่ที่จะปล่อยออกมาเป็นสัญญา ณเสียง ส่งผลให้ผู้ที่จะก่อคดีอาชากรรมร้ายแรงใด ๆ ก็ตามจะหยุดชะงักทันที ทำให้ต่อไปจะไม่มีใครก่ออาชญากรรมได้ (ออกแนวคล้าย ๆ หน่วยพรีไครม์ใน Minority Report (2002)) พระเอกของเรื่องเป็นโจรมืออาชีพที่ถูกลูกชายของเจ้าพ ่อมาเฟียชวนไปโจรกรรมเงินนับล้าน โดยหวังสร้างชื่อให้ตัวเองเป็นโจรคนสุดท้ายที่ทำงานไ ด้สำเร็จก่อนยุคสิ้นสุดอาชญากรรม ทั้งคู่ได้รับความช่วยเหลือจากแฮกเกอร์สาวมือฉมัง

    นำแสดงโดย Edgar Ramí rez (The Bourne Ultimatum และ Zero Dark Thirty), Anna Brewster (Star Wars Episode 7), Sharlto Copley (District 9) และ Michael Pitt (ซีรีส์ Boardwalk Empire))

    Format : Matroska
    Format version : Version 4
    File size : 4.18 GiB
    Duration : 2 h 29 min
    Overall bit rate : 4 013 kb/s
    Movie name : The.Last.Days.of.American.Crime.2020.1080p.NF.WEB-DL.DD5.1.x264_SkiesIT
    Encoded date : UTC 2020-06-05 13:15:34
    Writing application : mkvmerge v47.0.0 ('Black Flag') 64-bit
    Writing library : libebml v1.3.10 + libmatroska v1.5.2

    Video
    ID : 1
    Format : AVC
    Format/Info : Advanced Video Codec
    Format profile : [email protected]
    Format settings : CABAC / 4 Ref Frames
    Format settings, CABAC : Yes
    Format settings, Reference frames : 4 frames
    Codec ID : V_MPEG4/ISO/AVC
    Duration : 2 h 29 min
    Bit rate : 2 500 kb/s
    Width : 1 920 pixels
    Height : 800 pixels
    Display aspect ratio : 2.40:1
    Frame rate mode : Constant
    Frame rate : 24.000 FPS
    Color space : YUV
    Chroma subsampling : 4:2:0
    Bit depth : 8 bits
    Scan type : Progressive
    Bits/(Pixel*Frame) : 0.068
    Stream size : 2.60 GiB (62%)
    Title : The.Last.Days.of.American.Crime.2020.1080p.NF.WEB-DL.DD5.1.x264_SkiesIT
    Writing library : x264 core 152 r2851M ba24899
    Encoding settings : cabac=1 / ref=4 / deblock=1:-1:-1 / analyse=0x3:0x113 / me=umh / subme=9 / psy=1 / psy_rd=1.00:0.15 / mixed_ref=1 / me_range=24 / chroma_me=1 / trellis=2 / 8x8dct=1 / cqm=0 / deadzone=21,11 / fast_pskip=1 / chroma_qp_offset=-3 / threads=16 / lookahead_threads=4 / sliced_threads=0 / nr=0 / decimate=1 / interlaced=0 / bluray_compat=0 / constrained_intra=0 / bframes=3 / b_pyramid=2 / b_adapt=2 / b_bias=0 / direct=3 / weightb=1 / open_gop=0 / weightp=2 / keyint=250 / keyint_min=25 / scenecut=40 / intra_refresh=0 / rc_lookahead=50 / rc=2pass / mbtree=1 / bitrate=2500 / ratetol=1.0 / qcomp=0.60 / qpmin=0 / qpmax=69 / qpstep=4 / cplxblur=20.0 / qblur=0.5 / vbv_maxrate=31250 / vbv_bufsize=31250 / nal_hrd=none / filler=0 / ip_ratio=1.40 / aq=3:1.00
    Language : English
    Default : Yes
    Forced : No

    Audio #1
    ID : 2
    Format : E-AC-3
    Format/Info : Enhanced AC-3
    Commercial name : Dolby Digital Plus
    Codec ID : A_EAC3
    Duration : 2 h 29 min
    Bit rate mode : Constant
    Bit rate : 640 kb/s
    Channel(s) : 6 channels
    Channel layout : L R C LFE Ls Rs
    Sampling rate : 48.0 kHz
    Frame rate : 31.250 FPS (1536 SPF)
    Compression mode : Lossy
    Stream size : 682 MiB (16%)
    Title : Thai E-AC-3 5.1 / 640 kb/s
    Language : Thai
    Service kind : Complete Main
    Default : Yes
    Forced : No

    Audio #2
    ID : 3
    Format : E-AC-3 JOC
    Format/Info : Enhanced AC-3 with Joint Object Coding
    Commercial name : Dolby Digital Plus with Dolby Atmos
    Codec ID : A_EAC3
    Duration : 2 h 29 min
    Bit rate mode : Constant
    Bit rate : 768 kb/s
    Channel(s) : 6 channels
    Channel layout : L R C LFE Ls Rs
    Sampling rate : 48.0 kHz
    Frame rate : 31.250 FPS (1536 SPF)
    Compression mode : Lossy
    Stream size : 819 MiB (19%)
    Title : English E-AC-3 JOC / 768 kb/s
    Language : English
    Service kind : Complete Main
    Default : No
    Forced : No
    Complexity index : 16
    Number of dynamic objects : 15
    Bed channel count : 1 channel
    Bed channel configuration : LFE

    Text #1
    ID : 4
    Format : UTF-8
    Codec ID : S_TEXT/UTF8
    Codec ID/Info : UTF-8 Plain Text
    Duration : 2 h 27 min
    Bit rate : 97 b/s
    Count of elements : 1369
    Stream size : 104 KiB (0%)
    Title : Thai SRT From Netflix
    Language : Thai
    Default : Yes
    Forced : No

    Text #2
    ID : 5
    Format : UTF-8
    Codec ID : S_TEXT/UTF8
    Codec ID/Info : UTF-8 Plain Text
    Duration : 2 h 26 min
    Bit rate : 44 b/s
    Count of elements : 1616
    Stream size : 48.0 KiB (0%)
    Title : English SRT [SDH]
    Language : English
    Default : No
    Forced : No

    Text #3
    ID : 6
    Format : PGS
    Muxing mode : zlib
    Codec ID : S_HDMV/PGS
    Codec ID/Info : Picture based subtitle format used on BDs/HD-DVDs
    Duration : 2 h 27 min
    Bit rate : 28.9 kb/s
    Count of elements : 2738
    Stream size : 30.4 MiB (1%)
    Title : Thai PGS [Angsana]
    Language : Thai
    Default : No
    Forced : No

    Text #4
    ID : 7
    Format : PGS
    Muxing mode : zlib
    Codec ID : S_HDMV/PGS
    Codec ID/Info : Picture based subtitle format used on BDs/HD-DVDs
    Duration : 2 h 27 min
    Bit rate : 28.9 kb/s
    Count of elements : 2738
    Stream size : 30.4 MiB (1%)
    Title : Thai PGS [Angsana Yellow]
    Language : Thai
    Default : No
    Forced : No

    Text #5
    ID : 8
    Format : PGS
    Muxing mode : zlib
    Codec ID : S_HDMV/PGS
    Codec ID/Info : Picture based subtitle format used on BDs/HD-DVDs
    Duration : 2 h 27 min
    Bit rate : 29.1 kb/s
    Count of elements : 2738
    Stream size : 30.6 MiB (1%)
    Title : Thai PGS [Saranun]
    Language : Thai
    Default : No
    Forced : No

    Text #6
    ID : 9
    Format : PGS
    Muxing mode : zlib
    Codec ID : S_HDMV/PGS
    Codec ID/Info : Picture based subtitle format used on BDs/HD-DVDs
    Duration : 2 h 27 min
    Bit rate : 29.1 kb/s
    Count of elements : 2738
    Stream size : 30.6 MiB (1%)
    Title : Thai PGS [Saranun Yellow]
    Language : Thai
    Default : No
    Forced : No

    Text #7
    ID : 10
    Format : PGS
    Muxing mode : zlib
    Codec ID : S_HDMV/PGS
    Codec ID/Info : Picture based subtitle format used on BDs/HD-DVDs
    Duration : 2 h 27 min
    Bit rate : 28.5 kb/s
    Count of elements : 2738
    Stream size : 30.0 MiB (1%)
    Title : Thai PGS [Niramit]
    Language : Thai
    Default : No
    Forced : No

    Text #8
    ID : 11
    Format : PGS
    Muxing mode : zlib
    Codec ID : S_HDMV/PGS
    Codec ID/Info : Picture based subtitle format used on BDs/HD-DVDs
    Duration : 2 h 27 min
    Bit rate : 28.5 kb/s
    Count of elements : 2738
    Stream size : 30.0 MiB (1%)
    Title : Thai PGS [Niramit Yellow]
    Language : Thai
    Default : No
    Forced : No

    Text #9
    ID : 12
    Format : PGS
    Muxing mode : zlib
    Codec ID : S_HDMV/PGS
    Codec ID/Info : Picture based subtitle format used on BDs/HD-DVDs
    Duration : 2 h 26 min
    Bit rate : 32.3 kb/s
    Count of elements : 3232
    Stream size : 34.0 MiB (1%)
    Title : English PGS
    Language : English
    Default : No
    Forced : No















    Download: cornfile
    http://cornfile.com/nke74fn8jvdk
    Download: mekafile
    http://www.mekafile.com/dl.php?f=Qpdbe5c9UUFn

  2. The Following 4 Users Say Thank You to Duckload.us For This Useful Post:

    gaszolineskywalker (06-08-2020), Jodz14 (06-08-2020), noi54 (06-07-2020), spidertoon (06-08-2020)

  3. #2
    Senior Member
    สมัครเมื่อ
    Jul 2013
    โพสต์
    696
    Thanks
    0
    Thanked 0 Times in 0 Posts
    ขอบคุณครับ

  4. #3
    Senior Member
    สมัครเมื่อ
    Oct 2012
    โพสต์
    1,142
    Thanks
    2,077
    Thanked 0 Times in 0 Posts
    ขอบคุณครับ

+ ตอบกลับกระทู้

ข้อมูลกระทู้

Users Browsing this Thread

ในขณะนี้มี 1 ท่านดูกระทู้อยู่. (0 สมาชิกและ 1 ผู้เยี่ยมชม)

     

กฎการโพสต์ข้อความ

  • ท่าน ไม่สามารถ ตั้งกระทู้ใหม่ได้
  • ท่าน ไม่สามารถ ตอบกระทู้ได้
  • ท่าน ไม่สามารถ แนบไฟล์ได้
  • ท่าน ไม่สามารถ แก้ไขข้อความโพสต์ได้
  • BB code สถานะ เปิด
  • Smilies สถานะ เปิด
  • [IMG] สถานะ เปิด
  • HTML สถานะ ปิด