เรื่องย่อ
Since the dawn of civilization, he was worshiped as a god. Apocalypse, the first and most powerful mutant from Marvel's X-Men universe, amassed the powers of many other mutants, becoming immortal and invincible. Upon awakening after thousands of years, he is disillusioned with the world as he finds it and recruits a team of powerful mutants, including a disheartened Magneto, to cleanse mankind and create a new world order, over which he will reign. As the fate of the Earth hangs in the balance, Raven with the help of Professor X must lead a team of young X-Men to stop their greatest nemesis and save mankind from complete destruction.

Format : Matroska
Format version : Version 4
File size : 5.69 GiB
Duration : 2 h 23 min
Overall bit rate mode : Variable
Overall bit rate : 5 662 kb/s
Encoded date : UTC 2020-06-14 06:45:00
Writing application : mkvmerge v47.0.0 ('Black Flag') 64-bit
Writing library : libebml v1.3.10 + libmatroska v1.5.2

Video
ID : 1
Format : AVC
Format/Info : Advanced Video Codec
Format profile : [email protected]
Format settings : CABAC / 1 Ref Frames
Format settings, CABAC : Yes
Format settings, Reference : 1 frame
Codec ID : V_MPEG4/ISO/AVC
Duration : 2 h 23 min
Bit rate mode : Variable
Bit rate : 3 666 kb/s
Maximum bit rate : 10.9 Mb/s
Width : 1 920 pixels
Height : 800 pixels
Display aspect ratio : 2.40:1
Frame rate mode : Constant
Frame rate : 23.976 (23976/1000) FPS
Original frame rate : 23.976 (24000/1001) FPS
Color space : YUV
Chroma subsampling : 4:2:0
Bit depth : 8 bits
Scan type : Progressive
Bits/(Pixel*Frame) : 0.100
Stream size : 3.69 GiB (65%)
Language : English
Default : Yes
Forced : No

Audio #1
ID : 2
Format : DTS ES
Format/Info : Digital Theater Systems
Commercial name : DTS-ES Matrix
Codec ID : A_DTS
Duration : 2 h 23 min
Bit rate mode : Constant
Bit rate : 1 509 kb/s
Channel(s) : 6 channels
Channel(s)_Original : 7 channels
ChannelLayout_Original : C L R Ls Rs Cs LFE
Sampling rate : 48.0 kHz
Frame rate : 93.750 FPS (512 SPF)
Bit depth : 24 bits
Compression mode : Lossy
Stream size : 1.52 GiB (27%)
Language : English
Default : Yes
Forced : No

Audio #2
ID : 9
Format : AC-3
Format/Info : Audio Coding 3
Commercial name : Dolby Digital
Codec ID : A_AC3
Duration : 2 h 23 min
Bit rate mode : Constant
Bit rate : 448 kb/s
Channel(s) : 6 channels
Channel layout : L R C LFE Ls Rs
Sampling rate : 48.0 kHz
Frame rate : 31.250 FPS (1536 SPF)
Compression mode : Lossy
Delay relative to video : 46 s 0 ms
Stream size : 458 MiB (8%)
Title : AC-3 Thai
Language : Thai
Service kind : Complete Main
Default : No
Forced : No

Text #1
ID : 3
Format : VobSub
Muxing mode : zlib
Codec ID : S_VOBSUB
Codec ID/Info : Picture based subtitle format used on DVDs
Duration : 2 h 22 min
Bit rate : 7 616 b/s
Count of elements : 1473
Stream size : 7.79 MiB (0%)
Title : Sub Thai 1080p
Language : Thai
Default : No
Forced : No

Text #2
ID : 4
Format : UTF-8
Codec ID : S_TEXT/UTF8
Codec ID/Info : UTF-8 Plain Text
Duration : 2 h 22 min
Bit rate : 87 b/s
Count of elements : 1473
Stream size : 91.6 KiB (0%)
Title : Sub Thai SRT
Language : Thai
Default : No
Forced : No

Text #3
ID : 5
Format : PGS
Muxing mode : zlib
Codec ID : S_HDMV/PGS
Codec ID/Info : Picture based subtitle format used on BDs/HD-DVDs
Duration : 2 h 22 min
Bit rate : 25.4 kb/s
Count of elements : 2946
Stream size : 26.0 MiB (0%)
Title : Sub Thai PGS
Language : Thai
Default : Yes
Forced : No

Text #4
ID : 6
Format : VobSub
Muxing mode : zlib
Codec ID : S_VOBSUB
Codec ID/Info : Picture based subtitle format used on DVDs
Duration : 2 h 22 min
Bit rate : 9 535 b/s
Count of elements : 1910
Stream size : 9.75 MiB (0%)
Title : Sub English 1080p
Language : English
Default : No
Forced : No

Text #5
ID : 7
Format : UTF-8
Codec ID : S_TEXT/UTF8
Codec ID/Info : UTF-8 Plain Text
Duration : 2 h 22 min
Bit rate : 45 b/s
Count of elements : 1910
Stream size : 47.9 KiB (0%)
Title : Sub English SRT
Language : English
Default : No
Forced : No

Text #6
ID : 8
Format : PGS
Muxing mode : zlib
Codec ID : S_HDMV/PGS
Codec ID/Info : Picture based subtitle format used on BDs/HD-DVDs
Duration : 2 h 22 min
Bit rate : 31.6 kb/s
Count of elements : 3820
Stream size : 32.3 MiB (1%)
Title : Sub English PGS
Language : English
Default : No
Forced : No

Menu
00:00:00.000 : :00:00:00.000
00:08:18.790 : :00:08:18.790
00:14:13.186 : :00:14:13.186
00:18:07.086 : :00:18:07.086
00:24:55.494 : :00:24:55.494
00:30:45.343 : :00:30:45.343
00:36:35.235 : :00:36:35.235
00:41:00.083 : :00:41:00.083
00:45:56.504 : :00:45:56.504
00:49:24.295 : :00:49:24.295
00:55:22.611 : :00:55:22.611
00:59:36.823 : :00:59:36.823
01:04:43.671 : :01:04:43.671
01:12:35.851 : :01:12:35.851
01:17:32.898 : :01:17:32.898
01:22:18.517 : :01:22:18.517
01:27:45.594 : :01:27:45.594
01:34:05.807 : :01:34:05.807
01:36:46.634 : :01:36:46.634
01:39:50.902 : :01:39:50.902
01:43:34.375 : :01:43:34.375
01:49:57.382 : :01:49:57.382
01:55:08.360 : :01:55:08.360
01:57:21.660 : :01:57:21.660
02:03:50.548 : :02:03:50.548
02:07:56.711 : :02:07:56.711
02:10:59.101 : :02:10:59.101
02:12:54.091 : :02:12:54.091



http://cornfile.com/aggq4tz0q73v
http://www.mekafile.com/dl.php?f=1z57a9cak8dF