+ ตอบกลับกระทู้
สรุปผลการค้นหา 1 ถึง 2 จากทั้งหมด 2
  1. #1
    Administrators รูปส่วนตัว Duckload.us
    สมัครเมื่อ
    Dec 2010
    โพสต์
    137,397
    Thanks
    7
    Thanked 143,210 Times in 62,344 Posts

    Thumbs up [ฝรั่ง]-Gravity Falls Season 1-2 : ผจญภัยเมืองมหัศจรรย์ ปี 1-2 [จบ] หนึ่งในงานการ์ตูนทีวีตะวันตกชั้นดี น่าประทับใจ-WEB-DL.H.264.1080p. [rip from Master]-[พากย์ไทย]



    พี่ชายฝาแฝดและน้องสาวของ Dipper และ Mabel Pines กำลังผจญภัยที่ไม่คาดฝันเมื่อพวกเขาใช้เวลาช่วงฤดูร้ อนช่วยลุง Stan ในกับดักนักท่องเที่ยวในเมืองลึกลับ Gravity Falls, Oregon

    Format : Matroska
    Format version : Version 4 / Version 2
    File size : 869 MiB
    Duration : 23 min 6 s
    Overall bit rate mode : Variable
    Overall bit rate : 5 257 kb/s
    Encoded date : UTC 2020-06-20 11:06:46
    Writing application : mkvmerge v47.0.0 ('Black Flag') 64-bit
    Writing library : libebml v1.3.10 + libmatroska v1.5.2

    Video
    ID : 1
    Format : AVC
    Format/Info : Advanced Video Codec
    Format profile : [email protected]
    Format settings, CABAC : Yes
    Format settings, ReFrames : 4 frames
    Codec ID : V_MPEG4/ISO/AVC
    Duration : 23 min 6 s
    Bit rate mode : Variable
    Bit rate : 4 583 kb/s
    Maximum bit rate : 15.0 Mb/s
    Width : 1 920 pixels
    Height : 1 080 pixels
    Display aspect ratio : 16:9
    Frame rate mode : Constant
    Frame rate : 23.976 (24000/1001) FPS
    Color space : YUV
    Chroma subsampling : 4:2:0
    Bit depth : 8 bits
    Scan type : Progressive
    Bits/(Pixel*Frame) : 0.092
    Default : Yes
    Forced : No
    Color range : Limited
    Color primaries : BT.709
    Transfer characteristics : BT.709
    Matrix coefficients : BT.709

    Audio #1
    ID : 2
    Format : AC-3
    Format/Info : Audio Coding 3
    Mode extension : CM (complete main)
    Format settings, Endianness : Big
    Codec ID : A_AC3
    Duration : 23 min 6 s
    Bit rate mode : Constant
    Bit rate : 448 kb/s
    Channel(s) : 2 channels
    Channel positions : Front: L R
    Sampling rate : 48.0 kHz
    Frame rate : 31.250 FPS (1536 spf)
    Compression mode : Lossy
    Stream size : 74.1 MiB (9%)
    Language : Thai
    Default : Yes
    Forced : No

    Audio #2
    ID : 3
    Format : E-AC-3
    Format/Info : Audio Coding 3
    Format settings, Endianness : Big
    Codec ID : A_EAC3
    Duration : 23 min 6 s
    Bit rate mode : Constant
    Bit rate : 224 kb/s
    Channel(s) : 2 channels
    Channel positions : Front: L R
    Sampling rate : 48.0 kHz
    Frame rate : 187.500 FPS (256 spf)
    Compression mode : Lossy
    Stream size : 37.0 MiB (4%)
    Language : English
    Default : No
    Forced : No

    Text
    ID : 4
    Format : UTF-8
    Codec ID : S_TEXT/UTF8
    Codec ID/Info : UTF-8 Plain Text
    Duration : 23 min 3 s
    Bit rate : 86 b/s
    Count of elements : 478
    Stream size : 14.6 KiB (0%)
    Language : English
    Default : No
    Forced : No









    Gravity.Falls.S02
    1
    http://www.filecondo.com/dl.php?f=q41e671JNn7g
    2
    http://www.filecondo.com/dl.php?f=155ad91JNn8d
    3
    http://www.filecondo.com/dl.php?f=Rb9ccb1JNn9d
    4
    http://www.filecondo.com/dl.php?f=k29aef1JNnaa
    5
    http://www.filecondo.com/dl.php?f=If52091JNnb8
    6
    http://www.filecondo.com/dl.php?f=7ba0241JNnc5
    7
    http://www.filecondo.com/dl.php?f=O94d761JNnd4
    8
    http://www.filecondo.com/dl.php?f=r11a301JNne1
    9
    http://www.filecondo.com/dl.php?f=mbd32e1JNnf1
    10
    http://www.filecondo.com/dl.php?f=07bfb11JNnfY
    11
    http://www.filecondo.com/dl.php?f=j81ed81JNngW
    12
    http://www.filecondo.com/dl.php?f=ib8f4f1JNnhW
    13
    http://www.filecondo.com/dl.php?f=6ca5ea1JNnj2
    14
    http://www.filecondo.com/dl.php?f=rc27f21JNnjQ
    15
    http://www.filecondo.com/dl.php?f=db42741JNnkO
    16
    http://www.filecondo.com/dl.php?f=Ycb82d1JNnlM
    17
    http://www.filecondo.com/dl.php?f=O47f9d1JNnmK
    18
    http://www.filecondo.com/dl.php?f=o3f5641JNnnL
    19
    http://www.filecondo.com/dl.php?f=Nfabb51JNnoI
    20
    http://www.filecondo.com/dl.php?f=Veab541JNnpL

    Gravity.Falls.S01
    1
    http://www.filecondo.com/dl.php?f=Wbab0c1JNmNU
    2
    http://www.filecondo.com/dl.php?f=t9ab861JNmOT
    3
    http://www.filecondo.com/dl.php?f=b6946b1JNmPQ
    4
    http://www.filecondo.com/dl.php?f=Z143001JNmQP
    5
    http://www.filecondo.com/dl.php?f=Sa262d1JNmRM
    6
    http://www.filecondo.com/dl.php?f=P8cd281JNmSK
    7
    http://www.filecondo.com/dl.php?f=n14a121JNmTJ
    8
    http://www.filecondo.com/dl.php?f=U306ea1JNmUF
    9
    http://www.filecondo.com/dl.php?f=y869091JNmVD
    10
    http://www.filecondo.com/dl.php?f=77937e1JNmWD
    11
    http://www.filecondo.com/dl.php?f=Cbacce1JNmXA
    12
    http://www.filecondo.com/dl.php?f=la5b1b1JNmYz
    13
    http://www.filecondo.com/dl.php?f=I26c141JNmZz
    14
    http://www.filecondo.com/dl.php?f=p1a8981JNn0t
    15
    http://www.filecondo.com/dl.php?f=H94ab01JNn1r
    16
    http://www.filecondo.com/dl.php?f=0001381JNn2r
    17
    http://www.filecondo.com/dl.php?f=n4dc571JNn3o
    18
    http://www.filecondo.com/dl.php?f=X1c0991JNn4o
    19
    http://www.filecondo.com/dl.php?f=U0623b1JNn5l
    20
    http://www.filecondo.com/dl.php?f=37fc1c1JNn6i

    ***********************************************
    cf up
    Gravity Falls S01.rar - 13.9 GB
    Gravity Falls S02.rar - 14.4 GB

  2. #2

+ ตอบกลับกระทู้

ข้อมูลกระทู้

Users Browsing this Thread

ในขณะนี้มี 1 ท่านดูกระทู้อยู่. (0 สมาชิกและ 1 ผู้เยี่ยมชม)

     

กฎการโพสต์ข้อความ

  • ท่าน ไม่สามารถ ตั้งกระทู้ใหม่ได้
  • ท่าน ไม่สามารถ ตอบกระทู้ได้
  • ท่าน ไม่สามารถ แนบไฟล์ได้
  • ท่าน ไม่สามารถ แก้ไขข้อความโพสต์ได้
  • BB code สถานะ เปิด
  • Smilies สถานะ เปิด
  • [IMG] สถานะ เปิด
  • HTML สถานะ ปิด