+ ตอบกลับกระทู้
สรุปผลการค้นหา 1 ถึง 7 จากทั้งหมด 7
  1. #1
    Administrators รูปส่วนตัว Duckload.us
    สมัครเมื่อ
    Dec 2010
    โพสต์
    115,926
    Thanks
    7
    Thanked 122,377 Times in 54,895 Posts

    Cool [ฝรั่ง]-[* Netflix *] Dark Season 1-3 (2017-2020) : ดาร์ก ซีซั่น 1-3 [เสียงเยอรมัน 5.1] [บรรยายไทย + อังกฤษ] [ซับไทย Master From Netflix + ซับ SRT , PGS]-WEB-DL.H.264.1080p. [Hi-def rip from Master]-[Soundtrack บรรยายไทย]






    Dark เป็น Original Netflix Series สัญชาติเยอรมัน แนว Sci-fi Thriller บอกเล่าเรื่องราวที่เกิดขึ้นในเมืองวินเดน กับปริศนาคดีการหายตัวไปอย่างลึกลับของคนในเมือง ซึ่งน่าแปลกตรงที่ เหตุการณ์แบบเดียวกันเกิดขึ้นเมื่อระยะเวลาครบรอบ 33 ปี รวมทั้งปรากฎการณ์ทางธรรมชาติ อย่างการที่นกที่บินอยู่บนฟ้าต่างก็ร่วงหล่นลงมาตายพ ร้อมกันเป็นจำนวนมาก เหมือนกับเมื่อ 33 ปีก่อนไม่มีผิดเพี๊ยน! โดยมีถ้ำแห่งหนึ่งในเมืองวินเดนเป็นจุดเชื่อมโยงของค ดีหายตัว



    Format : Matroska
    Format version : Version 4
    File size : 2.09 GiB
    Duration : 1 h 4 min
    Overall bit rate mode : Variable
    Overall bit rate : 4 663 kb/s
    Movie name : Dark.S03E05.Life.and.Death.1080p.NF.WEB-DL.DDP5.1.x264_SkiesIT
    Encoded date : UTC 2020-06-27 11:33:36
    Writing application : mkvmerge v47.0.0 ('Black Flag') 64-bit
    Writing library : libebml v1.3.10 + libmatroska v1.5.2

    Video
    ID : 1
    Format : AVC
    Format/Info : Advanced Video Codec
    Format profile : [email protected]
    Format settings : CABAC / 3 Ref Frames
    Format settings, CABAC : Yes
    Format settings, Reference frames : 3 frames
    Codec ID : V_MPEG4/ISO/AVC
    Duration : 1 h 4 min
    Bit rate mode : Variable
    Bit rate : 4 020 kb/s
    Maximum bit rate : 6 030 kb/s
    Width : 1 920 pixels
    Height : 1 080 pixels
    Display aspect ratio : 16:9
    Frame rate mode : Constant
    Frame rate : 24.000 FPS
    Color space : YUV
    Chroma subsampling : 4:2:0
    Bit depth : 8 bits
    Scan type : Progressive
    Bits/(Pixel*Frame) : 0.081
    Stream size : 1.77 GiB (85%)
    Title : Dark.S03E05.Life.and.Death.1080p.NF.WEB-DL.DDP5.1.x264_SkiesIT
    Writing library : x264 core 148 r2717 0d2410d
    Encoding settings : cabac=1 / ref=3 / deblock=1:0:0 / analyse=0x1:0x111 / me=umh / subme=10 / psy=1 / psy_rd=1.00:0.00 / mixed_ref=1 / me_range=24 / chroma_me=1 / trellis=2 / 8x8dct=0 / cqm=0 / deadzone=21,11 / fast_pskip=1 / chroma_qp_offset=-2 / threads=6 / lookahead_threads=1 / sliced_threads=0 / nr=0 / decimate=1 / interlaced=0 / bluray_compat=0 / stitchable=1 / constrained_intra=0 / bframes=2 / b_pyramid=0 / b_adapt=2 / b_bias=0 / direct=3 / weightb=1 / open_gop=0 / weightp=2 / keyint=250 / keyint_min=24 / scenecut=0 / intra_refresh=0 / rc_lookahead=48 / rc=2pass / mbtree=1 / bitrate=4020 / ratetol=1.0 / qcomp=0.50 / qpmin=6 / qpmax=51 / qpstep=4 / cplxblur=20.0 / qblur=0.5 / vbv_maxrate=6030 / vbv_bufsize=8040 / nal_hrd=vbr / filler=0 / ip_ratio=1.40 / aq=1:1.00
    Language : German
    Default : Yes
    Forced : No

    Audio
    ID : 2
    Format : E-AC-3
    Format/Info : Enhanced AC-3
    Commercial name : Dolby Digital Plus
    Codec ID : A_EAC3
    Duration : 1 h 4 min
    Bit rate mode : Constant
    Bit rate : 640 kb/s
    Channel(s) : 6 channels
    Channel layout : L R C LFE Ls Rs
    Sampling rate : 48.0 kHz
    Frame rate : 31.250 FPS (1536 SPF)
    Compression mode : Lossy
    Stream size : 293 MiB (14%)
    Title : German
    Language : German
    Service kind : Complete Main
    Default : No
    Forced : No

    Text #1
    ID : 3
    Format : UTF-8
    Codec ID : S_TEXT/UTF8
    Codec ID/Info : UTF-8 Plain Text
    Duration : 1 h 2 min
    Bit rate : 51 b/s
    Count of elements : 376
    Stream size : 23.3 KiB (0%)
    Title : Thai SRT From Netflix
    Language : Thai
    Default : Yes
    Forced : No

    Text #2
    ID : 4
    Format : UTF-8
    Codec ID : S_TEXT/UTF8
    Codec ID/Info : UTF-8 Plain Text
    Duration : 59 min 12 s
    Bit rate : 31 b/s
    Count of elements : 524
    Stream size : 13.8 KiB (0%)
    Title : English SRT
    Language : English
    Default : No
    Forced : No

    Text #3
    ID : 5
    Format : PGS
    Muxing mode : zlib
    Codec ID : S_HDMV/PGS
    Codec ID/Info : Picture based subtitle format used on BDs/HD-DVDs
    Duration : 1 h 2 min
    Bit rate : 16.1 kb/s
    Count of elements : 752
    Stream size : 7.18 MiB (0%)
    Title : Thai PGS [Angsana]
    Language : Thai
    Default : No
    Forced : No

    Text #4
    ID : 6
    Format : PGS
    Muxing mode : zlib
    Codec ID : S_HDMV/PGS
    Codec ID/Info : Picture based subtitle format used on BDs/HD-DVDs
    Duration : 1 h 2 min
    Bit rate : 16.1 kb/s
    Count of elements : 752
    Stream size : 7.18 MiB (0%)
    Title : Thai PGS [Angsana Yellow]
    Language : Thai
    Default : No
    Forced : No

    Text #5
    ID : 7
    Format : PGS
    Muxing mode : zlib
    Codec ID : S_HDMV/PGS
    Codec ID/Info : Picture based subtitle format used on BDs/HD-DVDs
    Duration : 1 h 2 min
    Bit rate : 15.9 kb/s
    Count of elements : 752
    Stream size : 7.10 MiB (0%)
    Title : Thai PGS [Niramit]
    Language : Thai
    Default : No
    Forced : No

    Text #6
    ID : 8
    Format : PGS
    Muxing mode : zlib
    Codec ID : S_HDMV/PGS
    Codec ID/Info : Picture based subtitle format used on BDs/HD-DVDs
    Duration : 1 h 2 min
    Bit rate : 15.9 kb/s
    Count of elements : 752
    Stream size : 7.10 MiB (0%)
    Title : Thai PGS [Niramit Yellow]
    Language : Thai
    Default : No
    Forced : No

    Text #7
    ID : 9
    Format : PGS
    Muxing mode : zlib
    Codec ID : S_HDMV/PGS
    Codec ID/Info : Picture based subtitle format used on BDs/HD-DVDs
    Duration : 1 h 2 min
    Bit rate : 16.2 kb/s
    Count of elements : 752
    Stream size : 7.23 MiB (0%)
    Title : Thai PGS [Saranun]
    Language : Thai
    Default : No
    Forced : No

    Text #8
    ID : 10
    Format : PGS
    Muxing mode : zlib
    Codec ID : S_HDMV/PGS
    Codec ID/Info : Picture based subtitle format used on BDs/HD-DVDs
    Duration : 1 h 2 min
    Bit rate : 16.2 kb/s
    Count of elements : 752
    Stream size : 7.23 MiB (0%)
    Title : Thai PGS [Saranun Yellow]
    Language : Thai
    Default : No
    Forced : No

    Text #9
    ID : 11
    Format : PGS
    Muxing mode : zlib
    Codec ID : S_HDMV/PGS
    Codec ID/Info : Picture based subtitle format used on BDs/HD-DVDs
    Duration : 59 min 12 s
    Bit rate : 22.8 kb/s
    Count of elements : 1048
    Stream size : 9.67 MiB (0%)
    Title : English PGS
    Language : English
    Default : No
    Forced : No














    Download: filecondo
    Dark.S03
    1 http://www.filecondo.com/dl.php?f=Pc73751JPOAm
    2 http://www.filecondo.com/dl.php?f=Wa26641JPOCm
    3 http://www.filecondo.com/dl.php?f=B22f791JPOEd
    4 http://www.filecondo.com/dl.php?f=s3878e1JPOGb
    5 http://www.filecondo.com/dl.php?f=B5977c1JPOIb
    6 http://www.filecondo.com/dl.php?f=abf2081JPOK1
    7 http://www.filecondo.com/dl.php?f=f6e62e1JPOM1
    8 http://www.filecondo.com/dl.php?f=Fea7331JPOPe

    Dark.S02
    1 http://www.filecondo.com/dl.php?f=j949da1JPOrH
    2 http://www.filecondo.com/dl.php?f=f170c61JPOsH
    3 http://www.filecondo.com/dl.php?f=A6d1101JPOtI
    4 http://www.filecondo.com/dl.php?f=Xf96841JPOuG
    5 http://www.filecondo.com/dl.php?f=ie80731JPOvE
    6 http://www.filecondo.com/dl.php?f=hd0ccc1JPOwE
    7 http://www.filecondo.com/dl.php?f=v19df11JPOxz
    8 http://www.filecondo.com/dl.php?f=b5cd6c1JPOyB

    DARK.S01
    1 http://www.filecondo.com/dl.php?f=a6997e1JPOi3
    2 http://www.filecondo.com/dl.php?f=S422061JPOiT
    3 http://www.filecondo.com/dl.php?f=Za35bf1JPOjS
    4 http://www.filecondo.com/dl.php?f=8e51a61JPOkR
    5 http://www.filecondo.com/dl.php?f=03ff161JPOlL
    6 http://www.filecondo.com/dl.php?f=U19b201JPOmL
    7 http://www.filecondo.com/dl.php?f=N4b4f71JPOnR
    8 http://www.filecondo.com/dl.php?f=78fa6f1JPOoO
    9 http://www.filecondo.com/dl.php?f=h633c41JPOpJ
    10 http://www.filecondo.com/dl.php?f=Q685331JPOqJ

    Download: cornfile
    DARK.S01E01.Secrets.1080p.NF.WEB-DL.DDP5.1.x264_SkiesIT.mkv - 1.9 GB
    DARK.S01E02.Lies.1080p.NF.WEB-DL.DDP5.1.x264_SkiesIT.mkv - 1.1 GB
    DARK.S01E03.Past.and.Present.1080p.NF.WEB-DL.DDP5.1.x264_SkiesIT.mkv - 1.3 GB
    DARK.S01E04.Double.Lives.1080p.NF.WEB-DL.DDP5.1.x264_SkiesIT.mkv - 1.3 GB
    DARK.S01E05.Truths.1080p.NF.WEB-DL.DDP5.1.x264_SkiesIT.mkv - 1012.2 MB
    DARK.S01E06.Sic.Mundus.Creatus.Est.1080p.NF.WEB-DL.DDP5.1.x264_SkiesIT.mkv - 1.1 GB
    DARK.S01E07.Crossroads.1080p.NF.WEB-DL.DDP5.1.x264_SkiesIT.mkv - 1.5 GB
    DARK.S01E08.As.You.Sow.so.You.Shall.Reap.1080p.NF. WEB-DL.DDP5.1.x264_SkiesIT.mkv - 1.9 GB
    DARK.S01E09.Everything.is.Now.1080p.NF.WEB-DL.DDP5.1.x264_SkiesIT.mkv - 1.6 GB
    DARK.S01E10.Alpha.and.Omega.1080p.NF.WEB-DL.DDP5.1.x264_SkiesIT.mkv - 1.9 GB
    Dark.S02E01.Beginnings.and.Endings.1080p.NF.WEB-DL.DDP5.1.x264_SkiesIT.mkv - 2.0 GB
    Dark.S02E02.Dark.Matter.1080p.NF.WEB-DL.DDP5.1.x264_SkiesIT.mkv - 2.3 GB
    Dark.S02E03.Ghosts.1080p.NF.WEB-DL.DDP5.1.x264_SkiesIT.mkv - 2.5 GB
    Dark.S02E04.The.Travelers.1080p.NF.WEB-DL.DDP5.1.x264_SkiesIT.mkv - 2.1 GB
    Dark.S02E05.Lost.and.Found.1080p.NF.WEB-DL.DDP5.1.x264_SkiesIT.mkv - 2.1 GB
    Dark.S02E06.An.Endless.Cycle.1080p.NF.WEB-DL.DDP5.1.x264_SkiesIT.mkv - 2.6 GB
    Dark.S02E07.The.White.Devil.1080p.NF.WEB-DL.DDP5.1.x264_SkiesIT.mkv - 1.8 GB
    Dark.S02E08.Endings.and.Beginnings.1080p.NF.WEB-DL.DDP5.1.x264_SkiesIT.mkv - 2.3 GB
    Dark.S03E01.DejaVu.1080p.NF.WEB-DL.DDP5.1.x264_SkiesIT.mkv - 1.6 GB
    Dark.S03E02.the.Survivors.1080p.NF.WEB-DL.DDP5.1.x264_SkiesIT.mkv - 1.7 GB
    Dark.S03E03.Adam.and.Eva.1080p.NF.WEB-DL.DDP5.1.x264_SkiesIT.mkv - 1.4 GB
    Dark.S03E04.the.Origin.1080p.NF.WEB-DL.DDP5.1.x264_SkiesIT.mkv - 1.7 GB
    Dark.S03E05.Life.and.Death.1080p.NF.WEB-DL.DDP5.1.x264_SkiesIT.mkv - 2.1 GB
    Dark.S03E06.Light.and.Shadow.1080p.NF.WEB-DL.DDP5.1.x264_SkiesIT.mkv - 1.4 GB
    Dark.S03E07.Between.the.Time.1080p.NF.WEB-DL.DDP5.1.x264_SkiesIT.mkv - 1.9 GB
    Dark.S03E08.the.Paradise.1080p.NF.WEB-DL.DDP5.1.x264_SkiesIT.mkv - 3.6 GB

    Download: mekafile
    DARK.S01
    1 http://www.mekafile.com/dl.php?f=Mye34ccaQMzF
    2 http://www.mekafile.com/dl.php?f=1dca7fcaQM8e
    3 http://www.mekafile.com/dl.php?f=UP1bf6caQMfe
    4 http://www.mekafile.com/dl.php?f=mO7746caQLO1
    5 http://www.mekafile.com/dl.php?f=L85eb8caQMsy
    6 http://www.mekafile.com/dl.php?f=pwa404caQLHA
    7 http://www.mekafile.com/dl.php?f=SS36bbcaQMGd
    8 http://www.mekafile.com/dl.php?f=Mg24a7caQM1N
    9 http://www.mekafile.com/dl.php?f=Fm7f8acaQMm0
    10 http://www.mekafile.com/dl.php?f=KGe526caQLV8

    Dark.S02
    1 http://www.mekafile.com/dl.php?f=sT1f01caQOxB
    2 http://www.mekafile.com/dl.php?f=RF6b6ecaQO6J
    3 http://www.mekafile.com/dl.php?f=yWf6abcaQOkh
    4 http://www.mekafile.com/dl.php?f=M9fbd9caQOqW
    5 http://www.mekafile.com/dl.php?f=Uha16ecaQNZJ
    6 http://www.mekafile.com/dl.php?f=FL0523caQOdJ
    7 http://www.mekafile.com/dl.php?f=zM6428caQNSX
    8 http://www.mekafile.com/dl.php?f=aM434fcaQOEB

    Dark.S03
    1 http://www.mekafile.com/dl.php?f=Ut5e67caQY2Q
    2 http://www.mekafile.com/dl.php?f=HQc1a3caQYtW
    3 http://www.mekafile.com/dl.php?f=mo31d7caQYgh
    4 http://www.mekafile.com/dl.php?f=vV6818caQY9v
    5 http://www.mekafile.com/dl.php?f=f2e669caQYAP
    6 http://www.mekafile.com/dl.php?f=mx7e42caQYn3
    7 http://www.mekafile.com/dl.php?f=JP5d6ccaQYHB
    8 http://www.mekafile.com/dl.php?f=ty80a4caQXWR

  2. The Following 2 Users Say Thank You to Duckload.us For This Useful Post:

    neorun (06-30-2020), Wesker_TOT (06-30-2020)

  3. #2
    Junior Member
    สมัครเมื่อ
    Jun 2020
    โพสต์
    1
    Thanks
    0
    Thanked 0 Times in 0 Posts
    ไฟล์น่าจะมีปัญหาครับ
    Dark S03E02
    http://cornfile.com/ovqcpoaw6m2y

  4. #3
    Junior Member
    สมัครเมื่อ
    May 2015
    โพสต์
    23
    Thanks
    0
    Thanked 0 Times in 0 Posts
    ของ filecondo ตอนนี้โหลดไม่ได้ซักไฟล์ครับ แก้ไขด้วยครับ

  5. #4
    Senior Member
    สมัครเมื่อ
    Jul 2012
    โพสต์
    6,877
    Thanks
    0
    Thanked 0 Times in 0 Posts
    ขอบคุณมากจ้า

  6. #5
    Senior Member
    สมัครเมื่อ
    Dec 2013
    โพสต์
    2,123
    Thanks
    4,043
    Thanked 0 Times in 0 Posts
    ขอบคุณนะครับ...

  7. #6
    Senior Member
    สมัครเมื่อ
    Jul 2013
    โพสต์
    737
    Thanks
    0
    Thanked 0 Times in 0 Posts
    ขอบคุณครับ

  8. #7
    Junior Member
    สมัครเมื่อ
    May 2019
    โพสต์
    1
    Thanks
    0
    Thanked 0 Times in 0 Posts
    ตอนที่ 4 ของ ของ filecondo ดูได้ครึ่งเรื่องครับ

+ ตอบกลับกระทู้

ข้อมูลกระทู้

Users Browsing this Thread

ในขณะนี้มี 1 ท่านดูกระทู้อยู่. (0 สมาชิกและ 1 ผู้เยี่ยมชม)

     

กฎการโพสต์ข้อความ

  • ท่าน ไม่สามารถ ตั้งกระทู้ใหม่ได้
  • ท่าน ไม่สามารถ ตอบกระทู้ได้
  • ท่าน ไม่สามารถ แนบไฟล์ได้
  • ท่าน ไม่สามารถ แก้ไขข้อความโพสต์ได้
  • BB code สถานะ เปิด
  • Smilies สถานะ เปิด
  • [IMG] สถานะ เปิด
  • HTML สถานะ ปิด