+ ตอบกลับกระทู้
สรุปผลการค้นหา 1 ถึง 4 จากทั้งหมด 4
  1. #1
    Administrators รูปส่วนตัว Duckload.us
    สมัครเมื่อ
    Dec 2010
    โพสต์
    116,052
    Thanks
    7
    Thanked 122,482 Times in 54,945 Posts

    Question [ฝรั่ง] • [* ใหม่ MASTER *] • Papillon (2017) ปาปิยอง หนีตายเเดนดิบ • [เสียงไทย AC-3 5.1 + อังกฤษ AAC 5.1] • [บรรยายอังกฤษ + Srt,PGS คมชัด] • [From Blu-Ray Master 1080p]




    หนังเล่าชีวิตของปาปิญ็อง สมาชิกหางแถวของแก๊งนอกกฏหมาย ปาปิญ็องเป็นโจรที่เชียวชาญการสะเดาะตู้เซฟ แต่ก็ยักยอกของที่ขโมยมาไว้ ทำให้โดนแก๊งจัดฉากให้กลายเป็นฆาตกร โดนส่งตัวไปคุมขังที่เกาะเฟรนซ์ กีอาน่า อาณานิคมของฝรั่งเศส ที่นี่เขาได้ตีสนิทกับหลุยส์ เดก้า ผู้ต้องหาคดีปลอมแปลงพันธบัตรรัฐบาลและมีเงินจำนวนมา กซุกซ่อนมากับตัว กลายเป็นเป้าหมายของเหล่าเพื่อนนักโทษที่จ้องหาทางฆ่ าเขาเพื่อชิงเงิน ปาปิญ็องจึงถือโอกาสเสนอตัวเป็นองค์รักษ์แลกกับเงินท ี่ปาปิญ็องจะต้องใช้ติดสินบนเหล่าผู้คุมระหว่างหลบหน ี จากจุดเริ่มต้นที่ต่างมีผลประโยชน์ต่อกัน พัฒนาเป็นความสัมพันธ์ระหว่างเพื่อนที่ยืนยาว ด้วยวีรกรรมที่พิสูจน์ความจริงใจต่อกันอย่างมากมาย ยิ่งทำให้นึกไม่ออกว่าเนื้อหาตามนิยายที่ไม่มีบทหลุย ส์ เดก้า จะเล่าเรื่องราวไปในทิศทางใดนะ เพราะบทหลุยส์ เดก้า นี่ถูกเพิ่มเติมมาภายหลังเพื่อดัสติน ฮอฟฟ์แมนโดยเฉพาะ


    Format : Matroska
    Format version : Version 4
    File size : 4.97 GiB
    Duration : 2 h 13 min
    Overall bit rate : 5 345 kb/s
    Movie name : จัดทำโดย ธBeer
    Encoded date : UTC 2020-06-29 10:41:13
    Writing application : mkvmerge v47.0.0 ('Black Flag') 64-bit
    Writing library : libebml v1.3.10 + libmatroska v1.5.2

    Video
    ID : 1
    Format : HEVC
    Format/Info : High Efficiency Video Coding
    Format profile : Main [email protected]@Main
    Codec ID : V_MPEGH/ISO/HEVC
    Duration : 2 h 13 min
    Bit rate : 4 250 kb/s
    Width : 1 920 pixels
    Height : 804 pixels
    Display aspect ratio : 2.40:1
    Frame rate mode : Constant
    Frame rate : 23.976 (24000/1001) FPS
    Color space : YUV
    Chroma subsampling : 4:2:0
    Bit depth : 10 bits
    Bits/(Pixel*Frame) : 0.115
    Stream size : 3.96 GiB (80%)
    Title : จัดทำโดย Beer
    Writing library : x265 2.9+1-169e76b6bbcc:[Windows][GCC 8.2.0][64 bit] 10bit
    Encoding settings : cpuid=1111039 / frame-threads=3 / numa-pools=8 / wpp / no-pmode / no-pme / no-psnr / no-ssim / log-level=2 / input-csp=1 / input-res=1920x804 / interlace=0 / total-frames=191681 / level-idc=0 / high-tier=1 / uhd-bd=0 / ref=4 / no-allow-non-conformance / no-repeat-headers / annexb / no-aud / no-hrd / info / hash=0 / no-temporal-layers / open-gop / min-keyint=23 / keyint=250 / gop-lookahead=0 / bframes=8 / b-adapt=2 / b-pyramid / bframe-bias=0 / rc-lookahead=25 / lookahead-slices=4 / scenecut=40 / radl=0 / no-intra-refresh / ctu=64 / min-cu-size=8 / rect / no-amp / max-tu-size=32 / tu-inter-depth=1 / tu-intra-depth=1 / limit-tu=0 / rdoq-level=2 / dynamic-rd=0.00 / no-ssim-rd / signh-i-d-e / no-tskip / nr-intra=0 / nr-inter=0 / no-constrained-intra / strong-intra-smoothing / max-merge=3 / limit-refs=3 / limit-modes / me=3 / subme=3 / merange=57 / temporal-mvp / weightp / no-weightb / no-analyze-src-pics / deblock=0:0 / sao / no-sao-non-deblock / rd=4 / no-early-skip / rskip / no-fast-intra / no-tskip-fast / no-cu-lossless / no-b-intra / no-splitrd-skip / rdpenalty=0 / psy-rd=2.00 / psy-rdoq=1.00 / no-rd-refine / no-lossless / cbqpoffs=0 / crqpoffs=0 / rc=abr / bitrate=4250 / qcomp=0.60 / qpstep=4 / stats-write=0 / stats-read=2 / cplxblur=20.0 / qblur=0.5 / ipratio=1.40 / pbratio=1.30 / aq-mode=3 / aq-strength=1.00 / cutree / zone-count=0 / no-strict-cbr / qg-size=32 / no-rc-grain / qpmax=69 / qpmin=0 / no-const-vbv / sar=0 / overscan=0 / videoformat=5 / range=0 / colorprim=2 / transfer=2 / colormatrix=2 / chromaloc=0 / display-window=0 / max-cll=0,0 / min-luma=0 / max-luma=1023 / log2-max-poc-lsb=8 / vui-timing-info / vui-hrd-info / slices=1 / no-opt-qp-pps / no-opt-ref-list-length-pps / multi-pass-opt-rps / scenecut-bias=0.05 / no-opt-cu-delta-qp / aq-motion / no-hdr / no-hdr-opt / no-dhdr10-opt / no-idr-recovery-sei / analysis-reuse-level=5 / scale-factor=0 / refine-intra=0 / refine-inter=0 / refine-mv=0 / no-limit-sao / ctu-info=0 / no-lowpass-dct / refine-mv-type=0 / copy-pic=1 / max-ausize-factor=1.0 / no-dynamic-refine / no-single-sei
    Default : Yes
    Forced : No

    Audio #1
    ID : 2
    Format : AC-3
    Format/Info : Audio Coding 3
    Commercial name : Dolby Digital
    Codec ID : A_AC3
    Duration : 2 h 13 min
    Bit rate mode : Constant
    Bit rate : 640 kb/s
    Channel(s) : 6 channels
    Channel layout : L R C LFE Ls Rs
    Sampling rate : 44.1 kHz
    Frame rate : 28.711 FPS (1536 SPF)
    Compression mode : Lossy
    Delay relative to video : 30 ms
    Stream size : 610 MiB (12%)
    Title : Thai AC3 5.1
    Language : Thai
    Service kind : Complete Main
    Default : Yes
    Forced : No

    Audio #2
    ID : 3
    Format : AAC LC
    Format/Info : Advanced Audio Codec Low Complexity
    Codec ID : A_AAC-2
    Duration : 2 h 13 min
    Bit rate : 433 kb/s
    Channel(s) : 6 channels
    Channel layout : C L R Ls Rs LFE
    Sampling rate : 48.0 kHz
    Frame rate : 46.875 FPS (1024 SPF)
    Compression mode : Lossy
    Delay relative to video : 20 ms
    Stream size : 413 MiB (8%)
    Title : AAC 5.1
    Language : English
    Default : No
    Forced : No

    Text #1
    ID : 4
    Format : PGS
    Muxing mode : zlib
    Codec ID : S_HDMV/PGS
    Codec ID/Info : Picture based subtitle format used on BDs/HD-DVDs
    Duration : 2 h 2 min
    Bit rate : 19.9 kb/s
    Count of elements : 1962
    Stream size : 17.5 MiB (0%)
    Title : Eng PGS
    Language : English
    Default : No
    Forced : No

    Text #2
    ID : 5
    Format : PGS
    Muxing mode : zlib
    Codec ID : S_HDMV/PGS
    Codec ID/Info : Picture based subtitle format used on BDs/HD-DVDs
    Duration : 2 h 2 min
    Bit rate : 19.9 kb/s
    Count of elements : 1962
    Stream size : 17.5 MiB (0%)
    Title : Eng PGS Out
    Language : English
    Default : No
    Forced : No

    Text #3
    ID : 6
    Format : UTF-8
    Codec ID : S_TEXT/UTF8
    Codec ID/Info : UTF-8 Plain Text
    Duration : 2 h 2 min
    Bit rate : 28 b/s
    Count of elements : 981
    Stream size : 25.8 KiB (0%)
    Title : Eng Srt
    Language : English
    Default : No
    Forced : No

    Menu
    00:00:00.000 : en:Chapter 01
    00:08:16.621 : en:Chapter 02
    00:16:47.589 : en:Chapter 03
    00:21:25.909 : en:Chapter 04
    00:26:31.965 : en:Chapter 05
    00:30:39.796 : en:Chapter 06
    00:34:10.798 : en:Chapter 07
    00:44:51.146 : en:Chapter 08
    00:52:54.588 : en:Chapter 09
    00:59:03.665 : en:Chapter 10
    01:04:12.890 : en:Chapter 11
    01:12:18.334 : en:Chapter 12
    01:20:35.372 : en:Chapter 13
    01:24:08.418 : en:Chapter 14
    01:35:19.547 : en:Chapter 15
    01:40:53.047 : en:Chapter 16
    01:47:10.882 : en:Chapter 17
    01:57:03.016 : en:Chapter 18
    02:02:58.913 : en:Chapter 19
    02:05:57.550 : en:Chapter 20

















    H.265
    http://cornfile.com/50ydvdlly917
    http://www.mekafile.com/dl.php?f=iM4aeecaTbsY
    H.264
    http://cornfile.com/k2g5kkfxq92a
    http://www.mekafile.com/dl.php?f=ak8ec6caTbbH

  2. The Following 2 Users Say Thank You to Duckload.us For This Useful Post:

    Jodz14 (07-02-2020), noi54 (07-02-2020)

  3. #2
    Senior Member
    สมัครเมื่อ
    Jul 2013
    โพสต์
    761
    Thanks
    0
    Thanked 0 Times in 0 Posts
    ขอบคุณครับ

  4. #3
    Member รูปส่วนตัว noi54
    สมัครเมื่อ
    Aug 2012
    โพสต์
    42
    Thanks
    3,214
    Thanked 0 Times in 0 Posts
    ไฟล์เสียครับ

  5. #4
    Senior Member
    สมัครเมื่อ
    Jul 2013
    โพสต์
    761
    Thanks
    0
    Thanked 0 Times in 0 Posts
    ขอบคูณครับ

+ ตอบกลับกระทู้

ข้อมูลกระทู้

Users Browsing this Thread

ในขณะนี้มี 1 ท่านดูกระทู้อยู่. (0 สมาชิกและ 1 ผู้เยี่ยมชม)

     

กฎการโพสต์ข้อความ

  • ท่าน ไม่สามารถ ตั้งกระทู้ใหม่ได้
  • ท่าน ไม่สามารถ ตอบกระทู้ได้
  • ท่าน ไม่สามารถ แนบไฟล์ได้
  • ท่าน ไม่สามารถ แก้ไขข้อความโพสต์ได้
  • BB code สถานะ เปิด
  • Smilies สถานะ เปิด
  • [IMG] สถานะ เปิด
  • HTML สถานะ ปิด