+ ตอบกลับกระทู้
สรุปผลการค้นหา 1 ถึง 2 จากทั้งหมด 2
  1. #1
    Administrators รูปส่วนตัว Duckload.us
    สมัครเมื่อ
    Dec 2010
    โพสต์
    116,861
    Thanks
    7
    Thanked 123,170 Times in 55,209 Posts

    Question [ฝรั่ง]-The F**k-It List (2020) ฉีกตำราท้าชีวิต-WEB-DL.H.264.1080p. [Rip]-[Soundtrack บรรยายไทย]



    นักแสดง
    อีไล บราวน์
    แมดิสัน ไอส์แมน
    มาร์คัส สไครบ์เนอร์
    เจอร์รี่ โอคอนเนลล์
    คาแรน บราร์
    ทริสแตน เลค เลอบู
    ปีเตอร์ ฟาซิเนลลี
    นาตาลี เซีย
    ชีวิตของนักเรียนมัธยมปลายปีสุดท้ายที่้เอาแต่เรียนพ ังพินาศเพราะการเล่นพิเรนทร์เพียงครั้งเดียว เขาจึงเผยแพร่ลิสต์สิ่งที่ยากทำมานาน ซึ่งอาจยังมีโอกาสได้ทำอยู่
    นักแสดงนำ:อีไล บราวน์,แมดิสัน ไอส์แมน,มาร์คัส สไครบ์เนอร์


    Code:
    Format                                   : Matroska
    Format version                           : Version 4
    File size                                : 4.14 GiB
    Duration                                 : 1 h 43 min
    Overall bit rate mode                    : Variable
    Overall bit rate                         : 5 725 kb/s
    Encoded date                             : UTC 2020-07-01 22:44:28
    Writing application                      : mkvmerge v44.0.0 ('Domino') 64-bit
    Writing library                          : libebml v1.3.10 + libmatroska v1.5.2
    
    Video
    ID                                       : 1
    Format                                   : AVC
    Format/Info                              : Advanced Video Codec
    Format profile                           : [email protected]
    Format settings                          : CABAC / 3 Ref Frames
    Format settings, CABAC                   : Yes
    Format settings, Reference frames        : 3 frames
    Codec ID                                 : V_MPEG4/ISO/AVC
    Duration                                 : 1 h 43 min
    Bit rate mode                            : Variable
    Bit rate                                 : 5 110 kb/s
    Maximum bit rate                         : 7 665 kb/s
    Width                                    : 1 920 pixels
    Height                                   : 1 080 pixels
    Display aspect ratio                     : 16:9
    Frame rate mode                          : Constant
    Frame rate                               : 23.976 (24000/1001) FPS
    Color space                              : YUV
    Chroma subsampling                       : 4:2:0
    Bit depth                                : 8 bits
    Scan type                                : Progressive
    Bits/(Pixel*Frame)                       : 0.103
    Stream size                              : 3.67 GiB (89%)
    Writing library                          : x264 core 148 r2721 6d200cf
    Encoding settings                        : cabac=1 / ref=3 / deblock=1:0:0 / analyse=0x1:0x111 / me=umh / subme=10 / psy=1 / psy_rd=1.00:0.00 / mixed_ref=1 / me_range=24 / chroma_me=1 / trellis=2 / 8x8dct=0 / cqm=0 / deadzone=21,11 / fast_pskip=1 / chroma_qp_offset=-2 / threads=8 / lookahead_threads=1 / sliced_threads=0 / nr=0 / decimate=1 / interlaced=0 / bluray_compat=0 / stitchable=1 / constrained_intra=0 / bframes=2 / b_pyramid=0 / b_adapt=2 / b_bias=0 / direct=3 / weightb=1 / open_gop=0 / weightp=2 / keyint=250 / keyint_min=23 / scenecut=0 / intra_refresh=0 / rc_lookahead=48 / rc=2pass / mbtree=1 / bitrate=5110 / ratetol=1.0 / qcomp=0.50 / qpmin=6 / qpmax=51 / qpstep=4 / cplxblur=20.0 / qblur=0.5 / vbv_maxrate=7665 / vbv_bufsize=10220 / nal_hrd=vbr / filler=0 / ip_ratio=1.40 / aq=1:1.00
    Default                                  : Yes
    Forced                                   : No
    
    Audio
    ID                                       : 2
    Format                                   : E-AC-3
    Format/Info                              : Enhanced AC-3
    Commercial name                          : Dolby Digital Plus
    Codec ID                                 : A_EAC3
    Duration                                 : 1 h 43 min
    Bit rate mode                            : Constant
    Bit rate                                 : 640 kb/s
    Channel(s)                               : 6 channels
    Channel layout                           : L R C LFE Ls Rs
    Sampling rate                            : 48.0 kHz
    Frame rate                               : 31.250 FPS (1536 SPF)
    Compression mode                         : Lossy
    Stream size                              : 474 MiB (11%)
    Title                                    : English
    Language                                 : English
    Service kind                             : Complete Main
    Default                                  : Yes
    Forced                                   : No
    
    Text #1
    ID                                       : 3
    Format                                   : UTF-8
    Codec ID                                 : S_TEXT/UTF8
    Codec ID/Info                            : UTF-8 Plain Text
    Duration                                 : 1 h 42 min
    Bit rate                                 : 86 b/s
    Count of elements                        : 1507
    Stream size                              : 64.5 KiB (0%)
    Title                                    : English
    Language                                 : English
    Default                                  : No
    Forced                                   : No
    
    Text #2
    ID                                       : 4
    Format                                   : UTF-8
    Codec ID                                 : S_TEXT/UTF8
    Codec ID/Info                            : UTF-8 Plain Text
    Duration                                 : 1 h 42 min
    Bit rate                                 : 116 b/s
    Count of elements                        : 1429
    Stream size                              : 87.2 KiB (0%)
    Title                                    : Arabic
    Language                                 : Arabic
    Default                                  : No
    Forced                                   : No
    
    Text #3
    ID                                       : 5
    Format                                   : UTF-8
    Codec ID                                 : S_TEXT/UTF8
    Codec ID/Info                            : UTF-8 Plain Text
    Duration                                 : 1 h 42 min
    Bit rate                                 : 62 b/s
    Count of elements                        : 1422
    Stream size                              : 46.8 KiB (0%)
    Title                                    : Chinese Simplified
    Language                                 : Chinese
    Default                                  : No
    Forced                                   : No
    
    Text #4
    ID                                       : 6
    Format                                   : UTF-8
    Codec ID                                 : S_TEXT/UTF8
    Codec ID/Info                            : UTF-8 Plain Text
    Duration                                 : 1 h 42 min
    Bit rate                                 : 63 b/s
    Count of elements                        : 1432
    Stream size                              : 47.8 KiB (0%)
    Title                                    : Chinese Traditional
    Language                                 : Chinese
    Default                                  : No
    Forced                                   : No
    
    Text #5
    ID                                       : 7
    Format                                   : UTF-8
    Codec ID                                 : S_TEXT/UTF8
    Codec ID/Info                            : UTF-8 Plain Text
    Duration                                 : 1 h 42 min
    Bit rate                                 : 71 b/s
    Count of elements                        : 1425
    Stream size                              : 53.5 KiB (0%)
    Title                                    : Czech
    Language                                 : Czech
    Default                                  : No
    Forced                                   : No
    
    Text #6
    ID                                       : 8
    Format                                   : UTF-8
    Codec ID                                 : S_TEXT/UTF8
    Codec ID/Info                            : UTF-8 Plain Text
    Duration                                 : 1 h 42 min
    Bit rate                                 : 79 b/s
    Count of elements                        : 1426
    Stream size                              : 59.4 KiB (0%)
    Title                                    : Danish
    Language                                 : Danish
    Default                                  : No
    Forced                                   : No
    
    Text #7
    ID                                       : 9
    Format                                   : UTF-8
    Codec ID                                 : S_TEXT/UTF8
    Codec ID/Info                            : UTF-8 Plain Text
    Duration                                 : 1 h 42 min
    Bit rate                                 : 65 b/s
    Count of elements                        : 1201
    Stream size                              : 48.8 KiB (0%)
    Title                                    : Dutch
    Language                                 : Dutch
    Default                                  : No
    Forced                                   : No
    
    Text #8
    ID                                       : 10
    Format                                   : UTF-8
    Codec ID                                 : S_TEXT/UTF8
    Codec ID/Info                            : UTF-8 Plain Text
    Duration                                 : 1 h 42 min
    Bit rate                                 : 71 b/s
    Count of elements                        : 1420
    Stream size                              : 53.4 KiB (0%)
    Title                                    : Finnish
    Language                                 : Finnish
    Default                                  : No
    Forced                                   : No
    
    Text #9
    ID                                       : 11
    Format                                   : UTF-8
    Codec ID                                 : S_TEXT/UTF8
    Codec ID/Info                            : UTF-8 Plain Text
    Duration                                 : 1 h 42 min
    Bit rate                                 : 73 b/s
    Count of elements                        : 1372
    Stream size                              : 54.6 KiB (0%)
    Title                                    : French
    Language                                 : French
    Default                                  : No
    Forced                                   : No
    
    Text #10
    ID                                       : 12
    Format                                   : UTF-8
    Codec ID                                 : S_TEXT/UTF8
    Codec ID/Info                            : UTF-8 Plain Text
    Duration                                 : 1 h 42 min
    Bit rate                                 : 69 b/s
    Count of elements                        : 1410
    Stream size                              : 52.3 KiB (0%)
    Title                                    : German
    Language                                 : German
    Default                                  : No
    Forced                                   : No
    
    Text #11
    ID                                       : 13
    Format                                   : UTF-8
    Codec ID                                 : S_TEXT/UTF8
    Codec ID/Info                            : UTF-8 Plain Text
    Duration                                 : 1 h 42 min
    Bit rate                                 : 116 b/s
    Count of elements                        : 1421
    Stream size                              : 87.3 KiB (0%)
    Title                                    : Greek
    Language                                 : Greek
    Default                                  : No
    Forced                                   : No
    
    Text #12
    ID                                       : 14
    Format                                   : UTF-8
    Codec ID                                 : S_TEXT/UTF8
    Codec ID/Info                            : UTF-8 Plain Text
    Duration                                 : 1 h 42 min
    Bit rate                                 : 115 b/s
    Count of elements                        : 1416
    Stream size                              : 86.1 KiB (0%)
    Title                                    : Hebrew
    Language                                 : Hebrew
    Default                                  : No
    Forced                                   : No
    
    Text #13
    ID                                       : 15
    Format                                   : UTF-8
    Codec ID                                 : S_TEXT/UTF8
    Codec ID/Info                            : UTF-8 Plain Text
    Duration                                 : 1 h 42 min
    Bit rate                                 : 190 b/s
    Count of elements                        : 1423
    Stream size                              : 142 KiB (0%)
    Title                                    : Hindi
    Language                                 : Hindi
    Default                                  : No
    Forced                                   : No
    
    Text #14
    ID                                       : 16
    Format                                   : UTF-8
    Codec ID                                 : S_TEXT/UTF8
    Codec ID/Info                            : UTF-8 Plain Text
    Duration                                 : 1 h 42 min
    Bit rate                                 : 69 b/s
    Count of elements                        : 1415
    Stream size                              : 51.9 KiB (0%)
    Title                                    : Hungarian
    Language                                 : Hungarian
    Default                                  : No
    Forced                                   : No
    
    Text #15
    ID                                       : 17
    Format                                   : UTF-8
    Codec ID                                 : S_TEXT/UTF8
    Codec ID/Info                            : UTF-8 Plain Text
    Duration                                 : 1 h 42 min
    Bit rate                                 : 86 b/s
    Count of elements                        : 1412
    Stream size                              : 65.1 KiB (0%)
    Title                                    : Icelandic
    Language                                 : Icelandic
    Default                                  : No
    Forced                                   : No
    
    Text #16
    ID                                       : 18
    Format                                   : UTF-8
    Codec ID                                 : S_TEXT/UTF8
    Codec ID/Info                            : UTF-8 Plain Text
    Duration                                 : 1 h 42 min
    Bit rate                                 : 74 b/s
    Count of elements                        : 1426
    Stream size                              : 56.0 KiB (0%)
    Title                                    : Indonesian
    Language                                 : Indonesian
    Default                                  : No
    Forced                                   : No
    
    Text #17
    ID                                       : 19
    Format                                   : UTF-8
    Codec ID                                 : S_TEXT/UTF8
    Codec ID/Info                            : UTF-8 Plain Text
    Duration                                 : 1 h 42 min
    Bit rate                                 : 74 b/s
    Count of elements                        : 1403
    Stream size                              : 55.8 KiB (0%)
    Title                                    : Italian
    Language                                 : Italian
    Default                                  : No
    Forced                                   : No
    
    Text #18
    ID                                       : 20
    Format                                   : UTF-8
    Codec ID                                 : S_TEXT/UTF8
    Codec ID/Info                            : UTF-8 Plain Text
    Duration                                 : 1 h 42 min
    Bit rate                                 : 61 b/s
    Count of elements                        : 1577
    Stream size                              : 46.1 KiB (0%)
    Title                                    : Japanese
    Language                                 : Japanese
    Default                                  : No
    Forced                                   : No
    
    Text #19
    ID                                       : 21
    Format                                   : UTF-8
    Codec ID                                 : S_TEXT/UTF8
    Codec ID/Info                            : UTF-8 Plain Text
    Duration                                 : 1 h 42 min
    Bit rate                                 : 76 b/s
    Count of elements                        : 1424
    Stream size                              : 57.4 KiB (0%)
    Title                                    : Korean
    Language                                 : Korean
    Default                                  : No
    Forced                                   : No
    
    Text #20
    ID                                       : 22
    Format                                   : UTF-8
    Codec ID                                 : S_TEXT/UTF8
    Codec ID/Info                            : UTF-8 Plain Text
    Duration                                 : 1 h 42 min
    Bit rate                                 : 77 b/s
    Count of elements                        : 1426
    Stream size                              : 58.1 KiB (0%)
    Title                                    : Malay
    Language                                 : Malay
    Default                                  : No
    Forced                                   : No
    
    Text #21
    ID                                       : 23
    Format                                   : UTF-8
    Codec ID                                 : S_TEXT/UTF8
    Codec ID/Info                            : UTF-8 Plain Text
    Duration                                 : 1 h 42 min
    Bit rate                                 : 69 b/s
    Count of elements                        : 1413
    Stream size                              : 52.1 KiB (0%)
    Title                                    : Norwegian Bokmal
    Language                                 : Norwegian Bokmal
    Default                                  : No
    Forced                                   : No
    
    Text #22
    ID                                       : 24
    Format                                   : UTF-8
    Codec ID                                 : S_TEXT/UTF8
    Codec ID/Info                            : UTF-8 Plain Text
    Duration                                 : 1 h 42 min
    Bit rate                                 : 65 b/s
    Count of elements                        : 1354
    Stream size                              : 48.9 KiB (0%)
    Title                                    : Polish
    Language                                 : Polish
    Default                                  : No
    Forced                                   : No
    
    Text #23
    ID                                       : 25
    Format                                   : UTF-8
    Codec ID                                 : S_TEXT/UTF8
    Codec ID/Info                            : UTF-8 Plain Text
    Duration                                 : 1 h 42 min
    Bit rate                                 : 67 b/s
    Count of elements                        : 1405
    Stream size                              : 50.5 KiB (0%)
    Title                                    : Portuguese
    Language                                 : Portuguese
    Default                                  : No
    Forced                                   : No
    
    Text #24
    ID                                       : 26
    Format                                   : UTF-8
    Codec ID                                 : S_TEXT/UTF8
    Codec ID/Info                            : UTF-8 Plain Text
    Duration                                 : 1 h 42 min
    Bit rate                                 : 73 b/s
    Count of elements                        : 1413
    Stream size                              : 55.3 KiB (0%)
    Title                                    : Brazilian Portuguese
    Language                                 : Portuguese
    Default                                  : No
    Forced                                   : No
    
    Text #25
    ID                                       : 27
    Format                                   : UTF-8
    Codec ID                                 : S_TEXT/UTF8
    Codec ID/Info                            : UTF-8 Plain Text
    Duration                                 : 1 h 42 min
    Bit rate                                 : 67 b/s
    Count of elements                        : 1407
    Stream size                              : 50.3 KiB (0%)
    Title                                    : Romanian
    Language                                 : Romanian
    Default                                  : No
    Forced                                   : No
    
    Text #26
    ID                                       : 28
    Format                                   : UTF-8
    Codec ID                                 : S_TEXT/UTF8
    Codec ID/Info                            : UTF-8 Plain Text
    Duration                                 : 1 h 42 min
    Bit rate                                 : 120 b/s
    Count of elements                        : 1422
    Stream size                              : 89.8 KiB (0%)
    Title                                    : Russian
    Language                                 : Russian
    Default                                  : No
    Forced                                   : No
    
    Text #27
    ID                                       : 29
    Format                                   : UTF-8
    Codec ID                                 : S_TEXT/UTF8
    Codec ID/Info                            : UTF-8 Plain Text
    Duration                                 : 1 h 42 min
    Bit rate                                 : 78 b/s
    Count of elements                        : 1423
    Stream size                              : 59.0 KiB (0%)
    Title                                    : Spanish
    Language                                 : Spanish
    Default                                  : No
    Forced                                   : No
    
    Text #28
    ID                                       : 30
    Format                                   : UTF-8
    Codec ID                                 : S_TEXT/UTF8
    Codec ID/Info                            : UTF-8 Plain Text
    Duration                                 : 1 h 42 min
    Bit rate                                 : 73 b/s
    Count of elements                        : 1416
    Stream size                              : 55.1 KiB (0%)
    Title                                    : European Spanish
    Language                                 : Spanish
    Default                                  : No
    Forced                                   : No
    
    Text #29
    ID                                       : 31
    Format                                   : UTF-8
    Codec ID                                 : S_TEXT/UTF8
    Codec ID/Info                            : UTF-8 Plain Text
    Duration                                 : 1 h 42 min
    Bit rate                                 : 76 b/s
    Count of elements                        : 1408
    Stream size                              : 57.0 KiB (0%)
    Title                                    : Swedish
    Language                                 : Swedish
    Default                                  : No
    Forced                                   : No
    
    Text #30
    ID                                       : 32
    Format                                   : UTF-8
    Codec ID                                 : S_TEXT/UTF8
    Codec ID/Info                            : UTF-8 Plain Text
    Duration                                 : 1 h 42 min
    Bit rate                                 : 176 b/s
    Count of elements                        : 1422
    Stream size                              : 132 KiB (0%)
    Title                                    : Thai
    Language                                 : Thai
    Default                                  : No
    Forced                                   : No
    
    Text #31
    ID                                       : 33
    Format                                   : UTF-8
    Codec ID                                 : S_TEXT/UTF8
    Codec ID/Info                            : UTF-8 Plain Text
    Duration                                 : 1 h 42 min
    Bit rate                                 : 75 b/s
    Count of elements                        : 1407
    Stream size                              : 56.7 KiB (0%)
    Title                                    : Turkish
    Language                                 : Turkish
    Default                                  : No
    Forced                                   : No
    
    Text #32
    ID                                       : 34
    Format                                   : UTF-8
    Codec ID                                 : S_TEXT/UTF8
    Codec ID/Info                            : UTF-8 Plain Text
    Duration                                 : 1 h 42 min
    Bit rate                                 : 117 b/s
    Count of elements                        : 1421
    Stream size                              : 88.3 KiB (0%)
    Title                                    : Ukrainian
    Language                                 : Ukrainian
    Default                                  : No
    Forced                                   : No
    
    Text #33
    ID                                       : 35
    Format                                   : UTF-8
    Codec ID                                 : S_TEXT/UTF8
    Codec ID/Info                            : UTF-8 Plain Text
    Duration                                 : 1 h 42 min
    Bit rate                                 : 91 b/s
    Count of elements                        : 1422
    Stream size                              : 68.5 KiB (0%)
    Title                                    : Vietnamese
    Language                                 : Vietnamese
    Default                                  : No
    Forced                                   : No




    Download: cornfile
    http://cornfile.com/lohl2u5vlcgm
    Download: mekafile
    http://www.mekafile.com/dl.php?f=Yn520ccaY4aL

  2. #2
    Senior Member
    สมัครเมื่อ
    Jul 2013
    โพสต์
    872
    Thanks
    0
    Thanked 0 Times in 0 Posts
    ขอบคุณครับ

+ ตอบกลับกระทู้

ข้อมูลกระทู้

Users Browsing this Thread

ในขณะนี้มี 1 ท่านดูกระทู้อยู่. (0 สมาชิกและ 1 ผู้เยี่ยมชม)

     

กฎการโพสต์ข้อความ

  • ท่าน ไม่สามารถ ตั้งกระทู้ใหม่ได้
  • ท่าน ไม่สามารถ ตอบกระทู้ได้
  • ท่าน ไม่สามารถ แนบไฟล์ได้
  • ท่าน ไม่สามารถ แก้ไขข้อความโพสต์ได้
  • BB code สถานะ เปิด
  • Smilies สถานะ เปิด
  • [IMG] สถานะ เปิด
  • HTML สถานะ ปิด