+ ตอบกลับกระทู้
สรุปผลการค้นหา 1 ถึง 3 จากทั้งหมด 3
  1. #1
    Administrators รูปส่วนตัว Duckload.us
    สมัครเมื่อ
    Dec 2010
    โพสต์
    116,862
    Thanks
    7
    Thanked 123,173 Times in 55,210 Posts

    Question [ฝรั่ง]-[Netflix] Under the Riccione Sun [2020] วางหัวใจใต้แสงตะวัน-WEB-DL.H.264.1080p. [Rip]-[Soundtrack บรรยายไทย]




    Release.........: Under.the.Riccione.Sun.2020.1080p.WEB.H264
    Date............: 07/01/2020
    Duration........: 1 h 42 min 02 s
    Video bitrate...: 7150 kbps
    Resolution......: 1920 x 1080
    Framerate.......: 24.000
    Audio codec.....: E-AC-3
    Audio bitrate...: 640 kbps
    Language........: Italian
    Channels........: 6
    Subtitles.......: English, Arabic, Chinese Simplified, Chinese Traditional, Czech, Danish, Dutch, Finnish, French, German, Greek, Hebrew, Hungarian, Indonesian, Italian, Japanese, Korean, Norwegian Bokmal, Polish, Portuguese, Brazilian Portuguese, Romanian, Russian, Spanish, European Spanish, Swedish, Thai, Turkish, Vietnamese
    IMDB............: https://www.imdb.com/title/tt10941528


    ในช่วงมาเที่ยวพักผ่อนริมหาดริชโชเน วัยรุ่นกลุ่มหนึ่งได้สานมิตรภาพเมื่อต้องช่วยกันหาทา งออกให้ความรักและปัญหาหัวใจของคนแอบรักช่วงพักร้อน
    นักแสดงนำ:คริสเตียโน คากคาโม,ลอเรนโซ ซูร์โซโล,ลูโดวิคา มาร์ติโน

    Code:
    Format                                   : Matroska
    Format version                           : Version 4
    File size                                : 5.51 GiB
    Duration                                 : 1 h 42 min
    Overall bit rate mode                    : Variable
    Overall bit rate                         : 7 731 kb/s
    Encoded date                             : UTC 2020-07-01 07:07:36
    Writing application                      : mkvmerge v46.0.0 ('No Deeper Escape') 64-bit
    Writing library                          : libebml v1.3.10 + libmatroska v1.5.2
    
    Video
    ID                                       : 1
    Format                                   : AVC
    Format/Info                              : Advanced Video Codec
    Format profile                           : [email protected]
    Format settings                          : CABAC / 3 Ref Frames
    Format settings, CABAC                   : Yes
    Format settings, Reference frames        : 3 frames
    Codec ID                                 : V_MPEG4/ISO/AVC
    Duration                                 : 1 h 42 min
    Bit rate mode                            : Variable
    Bit rate                                 : 7 150 kb/s
    Maximum bit rate                         : 10.7 Mb/s
    Width                                    : 1 920 pixels
    Height                                   : 1 080 pixels
    Display aspect ratio                     : 16:9
    Frame rate mode                          : Constant
    Frame rate                               : 24.000 FPS
    Color space                              : YUV
    Chroma subsampling                       : 4:2:0
    Bit depth                                : 8 bits
    Scan type                                : Progressive
    Bits/(Pixel*Frame)                       : 0.144
    Stream size                              : 5.05 GiB (92%)
    Writing library                          : x264 core 148 r2717 0d2410d
    Encoding settings                        : cabac=1 / ref=3 / deblock=1:0:0 / analyse=0x1:0x111 / me=umh / subme=10 / psy=1 / psy_rd=1.00:0.00 / mixed_ref=1 / me_range=24 / chroma_me=1 / trellis=2 / 8x8dct=0 / cqm=0 / deadzone=21,11 / fast_pskip=1 / chroma_qp_offset=-2 / threads=6 / lookahead_threads=1 / sliced_threads=0 / nr=0 / decimate=1 / interlaced=0 / bluray_compat=0 / stitchable=1 / constrained_intra=0 / bframes=2 / b_pyramid=0 / b_adapt=2 / b_bias=0 / direct=3 / weightb=1 / open_gop=0 / weightp=2 / keyint=250 / keyint_min=24 / scenecut=0 / intra_refresh=0 / rc_lookahead=48 / rc=2pass / mbtree=1 / bitrate=7150 / ratetol=1.0 / qcomp=0.50 / qpmin=6 / qpmax=51 / qpstep=4 / cplxblur=20.0 / qblur=0.5 / vbv_maxrate=10725 / vbv_bufsize=14300 / nal_hrd=vbr / filler=0 / ip_ratio=1.40 / aq=1:1.00
    Default                                  : Yes
    Forced                                   : No
    
    Audio
    ID                                       : 2
    Format                                   : E-AC-3
    Format/Info                              : Enhanced AC-3
    Commercial name                          : Dolby Digital Plus
    Codec ID                                 : A_EAC3
    Duration                                 : 1 h 42 min
    Bit rate mode                            : Constant
    Bit rate                                 : 640 kb/s
    Channel(s)                               : 6 channels
    Channel layout                           : L R C LFE Ls Rs
    Sampling rate                            : 48.0 kHz
    Frame rate                               : 31.250 FPS (1536 SPF)
    Compression mode                         : Lossy
    Stream size                              : 467 MiB (8%)
    Title                                    : Italian
    Language                                 : Italian
    Service kind                             : Complete Main
    Default                                  : No
    Forced                                   : No
    
    Text #1
    ID                                       : 3
    Format                                   : UTF-8
    Codec ID                                 : S_TEXT/UTF8
    Codec ID/Info                            : UTF-8 Plain Text
    Duration                                 : 1 h 35 min
    Bit rate                                 : 95 b/s
    Count of elements                        : 1377
    Stream size                              : 66.7 KiB (0%)
    Title                                    : English
    Language                                 : English
    Default                                  : Yes
    Forced                                   : Yes
    
    Text #2
    ID                                       : 4
    Format                                   : UTF-8
    Codec ID                                 : S_TEXT/UTF8
    Codec ID/Info                            : UTF-8 Plain Text
    Duration                                 : 1 h 40 min
    Bit rate                                 : 109 b/s
    Count of elements                        : 1430
    Stream size                              : 80.6 KiB (0%)
    Title                                    : Arabic
    Language                                 : Arabic
    Default                                  : No
    Forced                                   : No
    
    Text #3
    ID                                       : 5
    Format                                   : UTF-8
    Codec ID                                 : S_TEXT/UTF8
    Codec ID/Info                            : UTF-8 Plain Text
    Duration                                 : 1 h 40 min
    Bit rate                                 : 66 b/s
    Count of elements                        : 1430
    Stream size                              : 49.0 KiB (0%)
    Title                                    : Chinese Simplified
    Language                                 : Chinese
    Default                                  : No
    Forced                                   : No
    
    Text #4
    ID                                       : 6
    Format                                   : UTF-8
    Codec ID                                 : S_TEXT/UTF8
    Codec ID/Info                            : UTF-8 Plain Text
    Duration                                 : 1 h 40 min
    Bit rate                                 : 69 b/s
    Count of elements                        : 1439
    Stream size                              : 51.1 KiB (0%)
    Title                                    : Chinese Traditional
    Language                                 : Chinese
    Default                                  : No
    Forced                                   : No
    
    Text #5
    ID                                       : 7
    Format                                   : UTF-8
    Codec ID                                 : S_TEXT/UTF8
    Codec ID/Info                            : UTF-8 Plain Text
    Duration                                 : 1 h 40 min
    Bit rate                                 : 62 b/s
    Count of elements                        : 1426
    Stream size                              : 46.2 KiB (0%)
    Title                                    : Czech
    Language                                 : Czech
    Default                                  : No
    Forced                                   : No
    
    Text #6
    ID                                       : 8
    Format                                   : UTF-8
    Codec ID                                 : S_TEXT/UTF8
    Codec ID/Info                            : UTF-8 Plain Text
    Duration                                 : 1 h 40 min
    Bit rate                                 : 63 b/s
    Count of elements                        : 1371
    Stream size                              : 46.4 KiB (0%)
    Title                                    : Danish
    Language                                 : Danish
    Default                                  : No
    Forced                                   : No
    
    Text #7
    ID                                       : 9
    Format                                   : UTF-8
    Codec ID                                 : S_TEXT/UTF8
    Codec ID/Info                            : UTF-8 Plain Text
    Duration                                 : 1 h 40 min
    Bit rate                                 : 54 b/s
    Count of elements                        : 1277
    Stream size                              : 40.3 KiB (0%)
    Title                                    : Dutch
    Language                                 : Dutch
    Default                                  : No
    Forced                                   : No
    
    Text #8
    ID                                       : 10
    Format                                   : UTF-8
    Codec ID                                 : S_TEXT/UTF8
    Codec ID/Info                            : UTF-8 Plain Text
    Duration                                 : 1 h 40 min
    Bit rate                                 : 56 b/s
    Count of elements                        : 1350
    Stream size                              : 41.6 KiB (0%)
    Title                                    : Finnish
    Language                                 : Finnish
    Default                                  : No
    Forced                                   : No
    
    Text #9
    ID                                       : 11
    Format                                   : UTF-8
    Codec ID                                 : S_TEXT/UTF8
    Codec ID/Info                            : UTF-8 Plain Text
    Duration                                 : 1 h 40 min
    Bit rate                                 : 66 b/s
    Count of elements                        : 1412
    Stream size                              : 49.0 KiB (0%)
    Title                                    : French
    Language                                 : French
    Default                                  : No
    Forced                                   : No
    
    Text #10
    ID                                       : 12
    Format                                   : UTF-8
    Codec ID                                 : S_TEXT/UTF8
    Codec ID/Info                            : UTF-8 Plain Text
    Duration                                 : 1 h 40 min
    Bit rate                                 : 63 b/s
    Count of elements                        : 1371
    Stream size                              : 46.5 KiB (0%)
    Title                                    : German
    Language                                 : German
    Default                                  : No
    Forced                                   : No
    
    Text #11
    ID                                       : 13
    Format                                   : UTF-8
    Codec ID                                 : S_TEXT/UTF8
    Codec ID/Info                            : UTF-8 Plain Text
    Duration                                 : 1 h 40 min
    Bit rate                                 : 97 b/s
    Count of elements                        : 1421
    Stream size                              : 71.8 KiB (0%)
    Title                                    : Greek
    Language                                 : Greek
    Default                                  : No
    Forced                                   : No
    
    Text #12
    ID                                       : 14
    Format                                   : UTF-8
    Codec ID                                 : S_TEXT/UTF8
    Codec ID/Info                            : UTF-8 Plain Text
    Duration                                 : 1 h 37 min
    Bit rate                                 : 105 b/s
    Count of elements                        : 1388
    Stream size                              : 74.9 KiB (0%)
    Title                                    : Hebrew
    Language                                 : Hebrew
    Default                                  : No
    Forced                                   : No
    
    Text #13
    ID                                       : 15
    Format                                   : UTF-8
    Codec ID                                 : S_TEXT/UTF8
    Codec ID/Info                            : UTF-8 Plain Text
    Duration                                 : 1 h 40 min
    Bit rate                                 : 59 b/s
    Count of elements                        : 1345
    Stream size                              : 43.4 KiB (0%)
    Title                                    : Hungarian
    Language                                 : Hungarian
    Default                                  : No
    Forced                                   : No
    
    Text #14
    ID                                       : 16
    Format                                   : UTF-8
    Codec ID                                 : S_TEXT/UTF8
    Codec ID/Info                            : UTF-8 Plain Text
    Duration                                 : 1 h 40 min
    Bit rate                                 : 63 b/s
    Count of elements                        : 1481
    Stream size                              : 46.6 KiB (0%)
    Title                                    : Indonesian
    Language                                 : Indonesian
    Default                                  : No
    Forced                                   : No
    
    Text #15
    ID                                       : 17
    Format                                   : UTF-8
    Codec ID                                 : S_TEXT/UTF8
    Codec ID/Info                            : UTF-8 Plain Text
    Duration                                 : 1 h 35 min
    Bit rate                                 : 78 b/s
    Count of elements                        : 1497
    Stream size                              : 54.9 KiB (0%)
    Title                                    : Italian
    Language                                 : Italian
    Default                                  : No
    Forced                                   : No
    
    Text #16
    ID                                       : 18
    Format                                   : UTF-8
    Codec ID                                 : S_TEXT/UTF8
    Codec ID/Info                            : UTF-8 Plain Text
    Duration                                 : 1 h 40 min
    Bit rate                                 : 63 b/s
    Count of elements                        : 1596
    Stream size                              : 46.8 KiB (0%)
    Title                                    : Japanese
    Language                                 : Japanese
    Default                                  : No
    Forced                                   : No
    
    Text #17
    ID                                       : 19
    Format                                   : UTF-8
    Codec ID                                 : S_TEXT/UTF8
    Codec ID/Info                            : UTF-8 Plain Text
    Duration                                 : 1 h 40 min
    Bit rate                                 : 77 b/s
    Count of elements                        : 1433
    Stream size                              : 56.8 KiB (0%)
    Title                                    : Korean
    Language                                 : Korean
    Default                                  : No
    Forced                                   : No
    
    Text #18
    ID                                       : 20
    Format                                   : UTF-8
    Codec ID                                 : S_TEXT/UTF8
    Codec ID/Info                            : UTF-8 Plain Text
    Duration                                 : 1 h 40 min
    Bit rate                                 : 59 b/s
    Count of elements                        : 1430
    Stream size                              : 43.9 KiB (0%)
    Title                                    : Norwegian Bokmal
    Language                                 : Norwegian Bokmal
    Default                                  : No
    Forced                                   : No
    
    Text #19
    ID                                       : 21
    Format                                   : UTF-8
    Codec ID                                 : S_TEXT/UTF8
    Codec ID/Info                            : UTF-8 Plain Text
    Duration                                 : 1 h 40 min
    Bit rate                                 : 56 b/s
    Count of elements                        : 1412
    Stream size                              : 41.6 KiB (0%)
    Title                                    : Polish
    Language                                 : Polish
    Default                                  : No
    Forced                                   : No
    
    Text #20
    ID                                       : 22
    Format                                   : UTF-8
    Codec ID                                 : S_TEXT/UTF8
    Codec ID/Info                            : UTF-8 Plain Text
    Duration                                 : 1 h 40 min
    Bit rate                                 : 63 b/s
    Count of elements                        : 1429
    Stream size                              : 46.7 KiB (0%)
    Title                                    : Portuguese
    Language                                 : Portuguese
    Default                                  : No
    Forced                                   : No
    
    Text #21
    ID                                       : 23
    Format                                   : UTF-8
    Codec ID                                 : S_TEXT/UTF8
    Codec ID/Info                            : UTF-8 Plain Text
    Duration                                 : 1 h 40 min
    Bit rate                                 : 59 b/s
    Count of elements                        : 1422
    Stream size                              : 43.7 KiB (0%)
    Title                                    : Brazilian Portuguese
    Language                                 : Portuguese
    Default                                  : No
    Forced                                   : No
    
    Text #22
    ID                                       : 24
    Format                                   : UTF-8
    Codec ID                                 : S_TEXT/UTF8
    Codec ID/Info                            : UTF-8 Plain Text
    Duration                                 : 1 h 40 min
    Bit rate                                 : 64 b/s
    Count of elements                        : 1419
    Stream size                              : 47.2 KiB (0%)
    Title                                    : Romanian
    Language                                 : Romanian
    Default                                  : No
    Forced                                   : No
    
    Text #23
    ID                                       : 25
    Format                                   : UTF-8
    Codec ID                                 : S_TEXT/UTF8
    Codec ID/Info                            : UTF-8 Plain Text
    Duration                                 : 1 h 40 min
    Bit rate                                 : 102 b/s
    Count of elements                        : 1407
    Stream size                              : 75.6 KiB (0%)
    Title                                    : Russian
    Language                                 : Russian
    Default                                  : No
    Forced                                   : No
    
    Text #24
    ID                                       : 26
    Format                                   : UTF-8
    Codec ID                                 : S_TEXT/UTF8
    Codec ID/Info                            : UTF-8 Plain Text
    Duration                                 : 1 h 40 min
    Bit rate                                 : 60 b/s
    Count of elements                        : 1401
    Stream size                              : 44.6 KiB (0%)
    Title                                    : Spanish
    Language                                 : Spanish
    Default                                  : No
    Forced                                   : No
    
    Text #25
    ID                                       : 27
    Format                                   : UTF-8
    Codec ID                                 : S_TEXT/UTF8
    Codec ID/Info                            : UTF-8 Plain Text
    Duration                                 : 1 h 40 min
    Bit rate                                 : 60 b/s
    Count of elements                        : 1372
    Stream size                              : 44.6 KiB (0%)
    Title                                    : European Spanish
    Language                                 : Spanish
    Default                                  : No
    Forced                                   : No
    
    Text #26
    ID                                       : 28
    Format                                   : UTF-8
    Codec ID                                 : S_TEXT/UTF8
    Codec ID/Info                            : UTF-8 Plain Text
    Duration                                 : 1 h 40 min
    Bit rate                                 : 60 b/s
    Count of elements                        : 1353
    Stream size                              : 44.1 KiB (0%)
    Title                                    : Swedish
    Language                                 : Swedish
    Default                                  : No
    Forced                                   : No
    
    Text #27
    ID                                       : 29
    Format                                   : UTF-8
    Codec ID                                 : S_TEXT/UTF8
    Codec ID/Info                            : UTF-8 Plain Text
    Duration                                 : 1 h 40 min
    Bit rate                                 : 166 b/s
    Count of elements                        : 1430
    Stream size                              : 122 KiB (0%)
    Title                                    : Thai
    Language                                 : Thai
    Default                                  : No
    Forced                                   : No
    
    Text #28
    ID                                       : 30
    Format                                   : UTF-8
    Codec ID                                 : S_TEXT/UTF8
    Codec ID/Info                            : UTF-8 Plain Text
    Duration                                 : 1 h 40 min
    Bit rate                                 : 63 b/s
    Count of elements                        : 1269
    Stream size                              : 46.9 KiB (0%)
    Title                                    : Turkish
    Language                                 : Turkish
    Default                                  : No
    Forced                                   : No
    
    Text #29
    ID                                       : 31
    Format                                   : UTF-8
    Codec ID                                 : S_TEXT/UTF8
    Codec ID/Info                            : UTF-8 Plain Text
    Duration                                 : 1 h 40 min
    Bit rate                                 : 87 b/s
    Count of elements                        : 1410
    Stream size                              : 64.1 KiB (0%)
    Title                                    : Vietnamese
    Language                                 : Vietnamese
    Default                                  : No
    Forced                                   : No





    Download: cornfile
    http://cornfile.com/6gogd0wg5bov
    Download: mekafile
    http://www.mekafile.com/dl.php?f=x1fc4dcaY6O1

  2. #2
    Senior Member
    สมัครเมื่อ
    Jul 2013
    โพสต์
    872
    Thanks
    0
    Thanked 0 Times in 0 Posts
    ขอบคุณครับผม

  3. #3
    Senior Member
    สมัครเมื่อ
    Jun 2014
    โพสต์
    4,331
    Thanks
    0
    Thanked 0 Times in 0 Posts
    ขอบคุณครับ

+ ตอบกลับกระทู้

ข้อมูลกระทู้

Users Browsing this Thread

ในขณะนี้มี 1 ท่านดูกระทู้อยู่. (0 สมาชิกและ 1 ผู้เยี่ยมชม)

     

กฎการโพสต์ข้อความ

  • ท่าน ไม่สามารถ ตั้งกระทู้ใหม่ได้
  • ท่าน ไม่สามารถ ตอบกระทู้ได้
  • ท่าน ไม่สามารถ แนบไฟล์ได้
  • ท่าน ไม่สามารถ แก้ไขข้อความโพสต์ได้
  • BB code สถานะ เปิด
  • Smilies สถานะ เปิด
  • [IMG] สถานะ เปิด
  • HTML สถานะ ปิด