+ ตอบกลับกระทู้
สรุปผลการค้นหา 1 ถึง 2 จากทั้งหมด 2
  1. #1
    Administrators รูปส่วนตัว Duckload.us
    สมัครเมื่อ
    Dec 2010
    โพสต์
    116,863
    Thanks
    7
    Thanked 123,175 Times in 55,211 Posts

    Cool [ฝรั่ง]-[* Amazon Prime *] The Exorcist Season 1-2 (2016-2018) : หมอผี เอ็กซอร์ซิสต์ ซีซั่น 1-2 WEB-DL.H.264.1080p.[เสียงอังกฤษ 5.1] [บรรยายไทย + อังกฤษ] [ซับไทย Master From Amazon Prime + ซับ SRT , PGS]




    เดิมที The Exorcist หมอผี เอ็กซอร์ซิสต์ เป็นนิยายที่ได้รับแรงบันดาลใจจากเรื่องจริงเหตุการณ ์ Exorcism of Roland Doe ที่เกิดขึ้นในปี 1949 เหล่าบาทหลวงได้ร่วมกันทำพิธีขับไล่ผีที่สิงเด็กชายค นหนึ่งนามว่า Roland Doe ที่ถูกกล่าวหาว่าโดนปีศาจเข้าสิงร่าง ซึ่งพิธีกรรมนี้ได้รับการบันทึกโดยบิชอปเรย์มอนด์ ที่อยู่ในเหตุการณ์ด้วย จากเรื่องจริงร้อยเรียงสู่นิยายที่ตีพิมพ์ในปี 1971 ว่าด้วยเรื่องราว บาทหลวงทำพิธีไล่ผีที่สิงสู่ร่างของ Regan MacNeil ลูกสาววัย 12 ขวบ ของนักแสดงสาวชื่อดังคนหนึ่ง ผลงานของนักเขียนWilliam Peter Blatty ที่ต่อมาเขานำไปพัฒนาสร้างเป็นภาพยนตร์สยองขวัญในปี 1973 โดยนั่งแท่นเป็นผู้กำกับและนักเขียนบทด้วยตัวเองสำหร ับในเวอร์ชั่นซีรีย์ The Exorcist ทางช่อง FOX ได้ชี้แจงว่าเป็นการนำนิยายมาสร้างใหม่ให้เข้ากับยุค สมัยปัจจุบันโดยตามติดชีวิตของสองตัวละครที่เผชิญกับ เรื่องราวการขับไล่ผีร้าย พร้อมกับเผชิญหน้าปีศาจที่แท้จริง


    Format : Matroska
    Format version : Version 4
    File size : 1.66 GiB
    Duration : 45 min 22 s
    Overall bit rate : 5 246 kb/s
    Movie name : The.Exorcist.S01E01.Chapter.One.And.Let.My.Cry.Com e.Unto.Thee.Pilot.1080p.AMZN.WEB-DL.DD.5.1.x264_SkiesIT
    Encoded date : UTC 2020-06-30 00:53:54
    Writing application : mkvmerge v48.0.0 ('Fortress Around Your Heart') 64-bit
    Writing library : libebml v1.4.0 + libmatroska v1.6.0

    Video
    ID : 1
    Format : AVC
    Format/Info : Advanced Video Codec
    Format profile : [email protected]
    Format settings : CABAC / 5 Ref Frames
    Format settings, CABAC : Yes
    Format settings, Reference frames : 5 frames
    Codec ID : V_MPEG4/ISO/AVC
    Duration : 45 min 22 s
    Bit rate : 4 501 kb/s
    Width : 1 920 pixels
    Height : 1 080 pixels
    Display aspect ratio : 16:9
    Frame rate mode : Variable
    Frame rate : 23.976 FPS
    Color space : YUV
    Chroma subsampling : 4:2:0
    Bit depth : 8 bits
    Scan type : Progressive
    Bits/(Pixel*Frame) : 0.091
    Stream size : 1.42 GiB (86%)
    Title : The.Exorcist.S01E01.Chapter.One.And.Let.My.Cry.Com e.Unto.Thee.Pilot.1080p.AMZN.WEB-DL.DD.5.1.x264_SkiesIT
    Writing library : x264 core 157
    Encoding settings : cabac=1 / ref=5 / deblock=1:0:0 / analyse=0x3:0x113 / me=hex / subme=8 / psy=1 / psy_rd=1.00:0.00 / mixed_ref=1 / me_range=16 / chroma_me=1 / trellis=2 / 8x8dct=1 / cqm=0 / deadzone=21,11 / fast_pskip=1 / chroma_qp_offset=-2 / threads=9 / lookahead_threads=1 / sliced_threads=0 / nr=0 / decimate=1 / interlaced=0 / bluray_compat=0 / constrained_intra=0 / bframes=3 / b_pyramid=2 / b_adapt=1 / b_bias=0 / direct=3 / weightb=1 / open_gop=0 / weightp=2 / keyint=250 / keyint_min=23 / scenecut=40 / intra_refresh=0 / rc_lookahead=40 / rc=2pass / mbtree=1 / bitrate=4501 / ratetol=1.0 / qcomp=0.60 / qpmin=0 / qpmax=69 / qpstep=4 / cplxblur=20.0 / qblur=0.5 / vbv_maxrate=6751 / vbv_bufsize=9002 / nal_hrd=none / filler=0 / ip_ratio=1.40 / aq=1:1.00
    Language : English
    Default : Yes
    Forced : No

    Audio
    ID : 2
    Format : E-AC-3
    Format/Info : Enhanced AC-3
    Commercial name : Dolby Digital Plus
    Codec ID : A_EAC3
    Duration : 45 min 22 s
    Bit rate mode : Constant
    Bit rate : 640 kb/s
    Channel(s) : 6 channels
    Channel layout : L R C LFE Ls Rs
    Sampling rate : 48.0 kHz
    Frame rate : 31.250 FPS (1536 SPF)
    Compression mode : Lossy
    Stream size : 208 MiB (12%)
    Language : English
    Service kind : Complete Main
    Default : Yes
    Forced : No

    Text #1
    ID : 3
    Format : UTF-8
    Codec ID : S_TEXT/UTF8
    Codec ID/Info : UTF-8 Plain Text
    Duration : 42 min 41 s
    Bit rate : 106 b/s
    Count of elements : 424
    Stream size : 33.3 KiB (0%)
    Title : Thai SRT From Amazon Prime
    Language : Thai
    Default : Yes
    Forced : No

    Text #2
    ID : 4
    Format : UTF-8
    Codec ID : S_TEXT/UTF8
    Codec ID/Info : UTF-8 Plain Text
    Duration : 45 min 19 s
    Bit rate : 58 b/s
    Count of elements : 803
    Stream size : 19.5 KiB (0%)
    Title : English SRT
    Language : English
    Default : No
    Forced : No

    Text #3
    ID : 5
    Format : PGS
    Muxing mode : zlib
    Codec ID : S_HDMV/PGS
    Codec ID/Info : Picture based subtitle format used on BDs/HD-DVDs
    Duration : 42 min 41 s
    Bit rate : 32.7 kb/s
    Count of elements : 848
    Stream size : 9.97 MiB (1%)
    Title : Thai PGS [Angsana]
    Language : Thai
    Default : No
    Forced : No

    Text #4
    ID : 6
    Format : PGS
    Muxing mode : zlib
    Codec ID : S_HDMV/PGS
    Codec ID/Info : Picture based subtitle format used on BDs/HD-DVDs
    Duration : 42 min 41 s
    Bit rate : 32.7 kb/s
    Count of elements : 848
    Stream size : 9.97 MiB (1%)
    Title : Thai PGS [Angsana Yellow]
    Language : Thai
    Default : No
    Forced : No

    Text #5
    ID : 7
    Format : PGS
    Muxing mode : zlib
    Codec ID : S_HDMV/PGS
    Codec ID/Info : Picture based subtitle format used on BDs/HD-DVDs
    Duration : 42 min 41 s
    Bit rate : 32.2 kb/s
    Count of elements : 848
    Stream size : 9.83 MiB (1%)
    Title : Thai PGS [Niramit]
    Language : Thai
    Default : No
    Forced : No

    Text #6
    ID : 8
    Format : PGS
    Muxing mode : zlib
    Codec ID : S_HDMV/PGS
    Codec ID/Info : Picture based subtitle format used on BDs/HD-DVDs
    Duration : 42 min 41 s
    Bit rate : 32.2 kb/s
    Count of elements : 848
    Stream size : 9.83 MiB (1%)
    Title : Thai PGS [Niramit Yellow]
    Language : Thai
    Default : No
    Forced : No

    Text #7
    ID : 9
    Format : PGS
    Muxing mode : zlib
    Codec ID : S_HDMV/PGS
    Codec ID/Info : Picture based subtitle format used on BDs/HD-DVDs
    Duration : 42 min 41 s
    Bit rate : 32.9 kb/s
    Count of elements : 848
    Stream size : 10.0 MiB (1%)
    Title : Thai PGS [Saranun]
    Language : Thai
    Default : No
    Forced : No

    Text #8
    ID : 10
    Format : PGS
    Muxing mode : zlib
    Codec ID : S_HDMV/PGS
    Codec ID/Info : Picture based subtitle format used on BDs/HD-DVDs
    Duration : 42 min 41 s
    Bit rate : 32.9 kb/s
    Count of elements : 848
    Stream size : 10.0 MiB (1%)
    Title : Thai PGS [Saranun Yellow]
    Language : Thai
    Default : No
    Forced : No

    Text #9
    ID : 11
    Format : PGS
    Muxing mode : zlib
    Codec ID : S_HDMV/PGS
    Codec ID/Info : Picture based subtitle format used on BDs/HD-DVDs
    Duration : 45 min 18 s
    Bit rate : 39.0 kb/s
    Count of elements : 1606
    Stream size : 12.6 MiB (1%)
    Title : English PGS
    Language : English
    Default : No
    Forced : No















    Download: filecondo
    แบบรวม 29.99 GB
    http://www.filecondo.com/dl.php?f=ka13331JRlz9
    *************************************
    The.Exorcist.S01
    1 http://www.filecondo.com/dl.php?f=9821471JRlVi
    2 http://www.filecondo.com/dl.php?f=K6cba51JRlWk
    3 http://www.filecondo.com/dl.php?f=nd1ca21JRlXe
    4 http://www.filecondo.com/dl.php?f=x828c91JRlYb
    5 http://www.filecondo.com/dl.php?f=T896301JRlZd
    6 http://www.filecondo.com/dl.php?f=w61de51JRmCc
    7 http://www.filecondo.com/dl.php?f=m729161JRm05
    8 http://www.filecondo.com/dl.php?f=Ve5ed11JRm16
    9 http://www.filecondo.com/dl.php?f=Ccd5671JRm22
    10 http://www.filecondo.com/dl.php?f=hbfc4d1JRm36

    The.Exorcist.S02
    1 http://www.filecondo.com/dl.php?f=y30dda1JRm44
    2 http://www.filecondo.com/dl.php?f=P1fcc01JRm4Y
    3 http://www.filecondo.com/dl.php?f=i3bcdb1JRm5Y
    4 http://www.filecondo.com/dl.php?f=u836c91JRm6U
    5 http://www.filecondo.com/dl.php?f=I62d441JRm7S
    6 http://www.filecondo.com/dl.php?f=Tdea881JRm8T
    7 http://www.filecondo.com/dl.php?f=04aa541JRm9N
    8 http://www.filecondo.com/dl.php?f=Ff27e71JRmaJ
    9 http://www.filecondo.com/dl.php?f=f7c1f61JRmbJ
    10 http://www.filecondo.com/dl.php?f=M9de841JRmcG

    Download: cornfile
    The.Exorcist.S01E01.Chapter.One.And.Let.My.Cry.Com e.Unto.Thee.Pilot.1080p.AMZN.WEB-DL.DD.5.1.x264_SkiesIT.mkv - 1.7 GB
    The.Exorcist.S01E02.Chapter.Two.Lupus.in.Fabula.10 80p.AMZN.WEB-DL.DD.5.1.x264_SkiesIT.mkv - 1.5 GB
    The.Exorcist.S01E03.Chapter.Three.Let.em.In.1080p. AMZN.WEB-DL.DD.5.1.x264_SkiesIT.mkv - 1.4 GB
    The.Exorcist.S01E04.Chapter.Four.The.Moveable.Feas t.1080p.AMZN.WEB-DL.DD.5.1.x264_SkiesIT.mkv - 1.4 GB
    The.Exorcist.S01E05.Chapter.Five.Through.My.Most.G rievous.Fault.1080p.AMZN.WEB-DL.DD.5.1.x264_SkiesIT.mkv - 1.4 GB
    The.Exorcist.S01E06.Its.Your.Friendly.Neighborhood .Spider.Silky.Surgery.1080p.AMZN.WEB-DL.DD.5.1.x264_SkiesIT.mkv - 1.5 GB
    The.Exorcist.S01E07.Chapter.Seven.Father.of.Lies.1 080p.AMZN.WEB-DL.DD.5.1.x264_SkiesIT.mkv - 1.3 GB
    The.Exorcist.S01E08.Chapter.Eight.The.Griefbearers .1080p.AMZN.WEB-DL.DD.5.1.x264_SkiesIT.mkv - 1.6 GB
    The.Exorcist.S01E09.Chapter.Nine.162.1080p.AMZN.WE B-DL.DD.5.1.x264_SkiesIT.mkv - 1.5 GB
    The.Exorcist.S01E10.Chapter.Ten.Three.Rooms.1080p. AMZN.WEB-DL.DD.5.1.x264_SkiesIT.mkv - 1.5 GB
    The.Exorcist.S02E01.Janus.1080p.AMZN.WEB-DL.DDP5.1.x264_SkiesIT.mkv - 1.5 GB
    The.Exorcist.S02E02.Safe.as.Houses.1080p.AMZN.WEB-DL.DDP5.1.x264_SkiesIT.mkv - 1.6 GB
    The.Exorcist.S02E03.Unclean.1080p.AMZN.WEB-DL.DDP5.1.x264_SkiesIT.mkv - 1.6 GB
    The.Exorcist.S02E04.One.for.Sorrow.1080p.AMZN.WEB-DL.DDP5.1.x264_SkiesIT.mkv - 1.6 GB
    The.Exorcist.S02E05.There.but.for.the.Grace.of.God .Go.I.1080p.AMZN.WEB-DL.DDP5.1.x264_SkiesIT.mkv - 1.6 GB
    The.Exorcist.S02E06.Darling.Nikki.1080p.AMZN.WEB-DL.DDP5.1.x264_SkiesIT.mkv - 1.5 GB
    The.Exorcist.S02E07.Help.Me.1080p.AMZN.WEB-DL.DDP5.1.x264_SkiesIT.mkv - 1.6 GB
    The.Exorcist.S02E08.A.Heaven.of.Hell.1080p.AMZN.WE B-DL.DDP5.1.x264_SkiesIT.mkv - 1.3 GB
    The.Exorcist.S02E09.Ritual.Repetition.1080p.AMZN.W EB-DL.DDP5.1.x264_SkiesIT.mkv - 1.6 GB
    The.Exorcist.S02E10.Unworthy.1080p.AMZN.WEB-DL.DDP5.1.x264_SkiesIT.mkv - 1.4 GB
    The.Exorcist.S02E10.Unworthy.1080p.AMZN.WEB-DL.DDP5.1.x264_SkiesIT.mkv - 1.4 GB

    Download: mekafile
    The.Exorcist.S01
    1 http://www.mekafile.com/dl.php?f=Ht5f17cb1t1B
    2 http://www.mekafile.com/dl.php?f=Pp8981cb1tf2
    3 http://www.mekafile.com/dl.php?f=XO5db7cb1t89
    4 http://www.mekafile.com/dl.php?f=Nd5029cb1tG1
    5 http://www.mekafile.com/dl.php?f=7y7ddfcb1tlH
    6 http://www.mekafile.com/dl.php?f=I70eeacb1zfv
    7 http://www.mekafile.com/dl.php?f=fC5ee0cb1tMN
    8 http://www.mekafile.com/dl.php?f=s358e1cb1tst
    9 http://www.mekafile.com/dl.php?f=3k28c6cb1tzf
    10 http://www.mekafile.com/dl.php?f=zp210fcb1sUB

    The.Exorcist.S02
    1 http://www.mekafile.com/dl.php?f=gid7cccb1ury
    2 http://www.mekafile.com/dl.php?f=xm1cd5cb1uZq
    3 http://www.mekafile.com/dl.php?f=d4d9a3cb1uSx
    4 http://www.mekafile.com/dl.php?f=0Mc968cb1uyd
    5 http://www.mekafile.com/dl.php?f=yM53efcb1uLS
    6 http://www.mekafile.com/dl.php?f=r480f3cb1uEZ
    7 http://www.mekafile.com/dl.php?f=c8a111cb1ukM
    8 http://www.mekafile.com/dl.php?f=JN7f90cb1v5Y
    9 http://www.mekafile.com/dl.php?f=uX54f1cb1vcY
    10 http://www.mekafile.com/dl.php?f=jU2aefcb1ue0

  2. The Following User Says Thank You to Duckload.us For This Useful Post:

    jangska (07-04-2020)

  3. #2
    Senior Member
    สมัครเมื่อ
    Jul 2013
    โพสต์
    872
    Thanks
    0
    Thanked 0 Times in 0 Posts
    ขอบคุณครับผม

+ ตอบกลับกระทู้

ข้อมูลกระทู้

Users Browsing this Thread

ในขณะนี้มี 1 ท่านดูกระทู้อยู่. (0 สมาชิกและ 1 ผู้เยี่ยมชม)

     

กฎการโพสต์ข้อความ

  • ท่าน ไม่สามารถ ตั้งกระทู้ใหม่ได้
  • ท่าน ไม่สามารถ ตอบกระทู้ได้
  • ท่าน ไม่สามารถ แนบไฟล์ได้
  • ท่าน ไม่สามารถ แก้ไขข้อความโพสต์ได้
  • BB code สถานะ เปิด
  • Smilies สถานะ เปิด
  • [IMG] สถานะ เปิด
  • HTML สถานะ ปิด