+ ตอบกลับกระทู้
สรุปผลการค้นหา 1 ถึง 4 จากทั้งหมด 4
  1. #1
    Administrators รูปส่วนตัว Duckload.us
    สมัครเมื่อ
    Dec 2010
    โพสต์
    117,010
    Thanks
    7
    Thanked 123,313 Times in 55,262 Posts

    Question [ฝรั่ง]-[พิเศษมีเสียงไทย] Wild (2014) : ก้าวต่อไปตราบหัวใจยังไม่ล้ม -Blu-ray.H.264.1080p. [Modified]-[พากย์ไทย บรรยายไทย][สร้างจากเรื่องจริง เข้าชิงนำหญิงและสมทบหญิงออสการ์ 2015]



    ผู้หญิงที่มีอดีตอันน่าเศร้าตัดสินใจที่จะเริ่มต้นชี วิตใหม่ของเธอด้วยการปีนเขาระยะทางหนึ่งพันไมล์บนเส้ นทาง Pacific Crest Trail เพียงลำพัง โดยที่ไม่เคยมีประสบการณ์ใดๆมาก่อน เพื่อค้นหาตัวเองและสร้างแรงบันดาลใจใหม่ให้แก่ชีวิต

    Wild (2014) : ก้าวต่อไปตราบหัวใจยังไม่ล้ม คือผลงานการกำกับของ Jean-Marc Vallee ผู้กำกับ Dallas Buyers Club, Big Little Lies, Sharp Objects และส่งให้ Reese Witherspoon ได้กลับมาชิงรางวัลออสการ์อีกครั้ง




    Format : Matroska
    Format version : Version 4 / Version 2
    File size : 4.31 GiB
    Duration : 1 h 55 min
    Overall bit rate : 5 338 kb/s
    Encoded date : UTC 2020-07-04 02:03:40
    Writing application : mkvmerge v48.0.0 ('Fortress Around Your Heart') 64-bit
    Writing library : libebml v1.4.0 + libmatroska v1.6.0

    Video
    ID : 1
    Format : AVC
    Format/Info : Advanced Video Codec
    Format profile : [email protected]
    Format settings, CABAC : Yes
    Format settings, ReFrames : 4 frames
    Codec ID : V_MPEG4/ISO/AVC
    Duration : 1 h 55 min
    Bit rate : 4 500 kb/s
    Width : 1 920 pixels
    Height : 808 pixels
    Display aspect ratio : 2.40:1
    Frame rate mode : Constant
    Frame rate : 23.976 (24000/1001) FPS
    Color space : YUV
    Chroma subsampling : 4:2:0
    Bit depth : 8 bits
    Scan type : Progressive
    Bits/(Pixel*Frame) : 0.121
    Default : Yes
    Forced : No
    Color range : Limited
    Color primaries : BT.709
    Transfer characteristics : BT.709
    Matrix coefficients : BT.709

    Audio #1
    ID : 2
    Format : AC-3
    Format/Info : Audio Coding 3
    Mode extension : CM (complete main)
    Format settings, Endianness : Big
    Codec ID : A_AC3
    Duration : 1 h 55 min
    Bit rate mode : Constant
    Bit rate : 448 kb/s
    Channel(s) : 2 channels
    Channel positions : Front: L R
    Sampling rate : 48.0 kHz
    Frame rate : 31.250 FPS (1536 spf)
    Compression mode : Lossy
    Stream size : 370 MiB (8%)
    Language : Thai
    Default : Yes
    Forced : No

    Audio #2
    ID : 3
    Format : AC-3
    Format/Info : Audio Coding 3
    Mode extension : CM (complete main)
    Format settings, Endianness : Big
    Codec ID : A_AC3
    Duration : 1 h 55 min
    Bit rate mode : Constant
    Bit rate : 448 kb/s
    Channel(s) : 6 channels
    Channel positions : Front: L C R, Side: L R, LFE
    Sampling rate : 48.0 kHz
    Frame rate : 31.250 FPS (1536 spf)
    Compression mode : Lossy
    Stream size : 370 MiB (8%)
    Language : English
    Default : No
    Forced : No

    Text #1
    ID : 4
    Format : PGS
    Muxing mode : zlib
    Codec ID : S_HDMV/PGS
    Codec ID/Info : Picture based subtitle format used on BDs/HD-DVDs
    Duration : 1 h 53 min
    Bit rate : 27.2 kb/s
    Count of elements : 2134
    Stream size : 22.2 MiB (1%)
    Language : Thai
    Default : No
    Forced : No

    Text #2
    ID : 5
    Format : PGS
    Muxing mode : zlib
    Codec ID : S_HDMV/PGS
    Codec ID/Info : Picture based subtitle format used on BDs/HD-DVDs
    Duration : 1 h 53 min
    Bit rate : 24.2 kb/s
    Count of elements : 2134
    Stream size : 19.7 MiB (0%)
    Title : Yellow
    Language : Thai
    Default : No
    Forced : No

    Text #3
    ID : 6
    Format : UTF-8
    Codec ID : S_TEXT/UTF8
    Codec ID/Info : UTF-8 Plain Text
    Duration : 1 h 53 min
    Bit rate : 96 b/s
    Count of elements : 1067
    Stream size : 80.9 KiB (0%)
    Language : Thai
    Default : No
    Forced : No

    Text #4
    ID : 7
    Format : UTF-8
    Codec ID : S_TEXT/UTF8
    Codec ID/Info : UTF-8 Plain Text
    Duration : 1 h 53 min
    Bit rate : 44 b/s
    Count of elements : 1342
    Stream size : 36.9 KiB (0%)
    Language : English
    Default : No
    Forced : No






    Download: cornfile
    http://cornfile.com/7ujph4chhghd
    Download: mekafile
    http://www.mekafile.com/dl.php?f=I31f75cb69MY

  2. The Following 2 Users Say Thank You to Duckload.us For This Useful Post:

    noi54 (07-06-2020), Tatum03 (07-07-2020)

  3. #2
    Senior Member
    สมัครเมื่อ
    Oct 2013
    ที่อยู่
    Thailand
    โพสต์
    1,352
    Thanks
    1,223
    Thanked 0 Times in 0 Posts
    ขอบคุณมาก

  4. #3
    Senior Member
    สมัครเมื่อ
    Jul 2013
    โพสต์
    889
    Thanks
    0
    Thanked 0 Times in 0 Posts
    ขอบคุณครับผม

  5. #4
    Senior Member
    สมัครเมื่อ
    Jun 2014
    โพสต์
    4,331
    Thanks
    0
    Thanked 0 Times in 0 Posts
    ขอบคุณครับ

+ ตอบกลับกระทู้

ข้อมูลกระทู้

Users Browsing this Thread

ในขณะนี้มี 1 ท่านดูกระทู้อยู่. (0 สมาชิกและ 1 ผู้เยี่ยมชม)

     

กฎการโพสต์ข้อความ

  • ท่าน ไม่สามารถ ตั้งกระทู้ใหม่ได้
  • ท่าน ไม่สามารถ ตอบกระทู้ได้
  • ท่าน ไม่สามารถ แนบไฟล์ได้
  • ท่าน ไม่สามารถ แก้ไขข้อความโพสต์ได้
  • BB code สถานะ เปิด
  • Smilies สถานะ เปิด
  • [IMG] สถานะ เปิด
  • HTML สถานะ ปิด