+ ตอบกลับกระทู้
สรุปผลการค้นหา 1 ถึง 3 จากทั้งหมด 3
  1. #1
    Administrators รูปส่วนตัว Duckload.us
    สมัครเมื่อ
    Dec 2010
    โพสต์
    116,542
    Thanks
    7
    Thanked 123,018 Times in 55,141 Posts

    Cool [ญี่ปุ่น]-[* ใหม่ Netflix *] Ju-on: Origins (2020) : จูออน กำเนิดโคตรผีดุ [พากย์ไทย 5.1 + เสียงญี่ปุ่น 5.1] [บรรยายไทย + อังกฤษ] [เสียง + ซับไทย Master From Netflix + ซับ SRT , PGS]-WEB-DL.H.264.1080p.



    จูออน กำเนิดโคตรผีดุ ‘Ju-On: Origins’

    จูออน กำเนิดโคตรผีดุ (JU-ON: ORIGINS) เขียนบทโดย ฮิโรชิ ทากาฮาชิ (ผู้เขียนบทเรื่อง “Ring”) ร่วมกับ ทาคาชิเกะ อิชิเสะ โปรดิวเซอร์ ซึ่งเป็นหนึ่งในผู้ผลักดันซีรีส์เรื่องนี้ตั้งแต่วัน แรก โดยเรื่องราวในซีรีส์ยังคงอ้างอิงจากต้นฉบับ และคงรูปแบบความสยองขวัญแบบญี่ปุ่น แต่จะถูกยกระดับความหลอนกระชากอารมณ์แบบที่ไม่เห็นเค ยมาก่อน

    Netflix จับจุดต่อมผวา ด้วยการนำเค้าโครงเรื่องจริงเมื่อ 40 ปีก่อน มาสร้างเป็น JU-ON: ORIGINS ถือเป็นครั้งแรกของจักรวาลจูออนที่จะพาผู้ชมย้อนไปสำ รวจ‘จุดเริ่มต้นของคำสาป’ สาเหตุการตายสุดแสนทรมานและลึกลับของแม่ลูกคายาโกะแล ะโทชิโอะ ที่จะกลายเป็นความแค้นอาฆาตในเวลาต่อมา โดยจะยึดแกนเรื่องจากภาคต้นฉบับญี่ปุ่น

    เปิดฉากเนื้อเรื่องพาย้อนไป 40 ปีก่อน ณ บ้านต้นกำเนิดคำสาป เมื่อ ฮอนโจ ฮารุกะ ดาราสาวดาวรุ่งคนหนึ่งเจอกับเหตุการณ์ลึกลับได้ยินเส ียงฝีเท้าคนเดินไปมาในบ้านกลางดึกทั้งที่ไม่มีใคร เธอจึงขอความช่วยเหลือจากนักวิจัยด้านจิตวิญญาณ มาช่วยวิเคราะห์ว่าเธอกำลังเจอกับอะไร ก่อนที่จะพาไปเจอความจริงอันน่าสยดสยองและความอาฆาตแ ค้นที่พร้อมจะหลอกหลอนทุกคนที่มาเกี่ยวพัน


    Format : Matroska
    Format version : Version 4
    File size : 1.12 GiB
    Duration : 28 min 22 s
    Overall bit rate mode : Variable
    Overall bit rate : 5 641 kb/s
    Movie name : JU.ON.Origins.S01E01.1080p.NF.WEB-DL.DDP5.1.x264_SkiesIT
    Encoded date : UTC 2020-07-03 08:19:36
    Writing application : mkvmerge v48.0.0 ('Fortress Around Your Heart') 64-bit
    Writing library : libebml v1.4.0 + libmatroska v1.6.0

    Video
    ID : 1
    Format : AVC
    Format/Info : Advanced Video Codec
    Format profile : [email protected]
    Format settings : CABAC / 3 Ref Frames
    Format settings, CABAC : Yes
    Format settings, Reference frames : 3 frames
    Codec ID : V_MPEG4/ISO/AVC
    Duration : 28 min 22 s
    Bit rate mode : Variable
    Bit rate : 4 420 kb/s
    Maximum bit rate : 6 630 kb/s
    Width : 1 920 pixels
    Height : 1 080 pixels
    Display aspect ratio : 16:9
    Frame rate mode : Constant
    Frame rate : 24.000 FPS
    Color space : YUV
    Chroma subsampling : 4:2:0
    Bit depth : 8 bits
    Scan type : Progressive
    Bits/(Pixel*Frame) : 0.089
    Stream size : 861 MiB (75%)
    Title : JU.ON.Origins.S01E01.1080p.NF.WEB-DL.DDP5.1.x264_SkiesIT
    Writing library : x264 core 148 r2717 0d2410d
    Encoding settings : cabac=1 / ref=3 / deblock=1:0:0 / analyse=0x1:0x111 / me=umh / subme=10 / psy=1 / psy_rd=1.00:0.00 / mixed_ref=1 / me_range=24 / chroma_me=1 / trellis=2 / 8x8dct=0 / cqm=0 / deadzone=21,11 / fast_pskip=1 / chroma_qp_offset=-2 / threads=6 / lookahead_threads=1 / sliced_threads=0 / nr=0 / decimate=1 / interlaced=0 / bluray_compat=0 / stitchable=1 / constrained_intra=0 / bframes=2 / b_pyramid=0 / b_adapt=2 / b_bias=0 / direct=3 / weightb=1 / open_gop=0 / weightp=2 / keyint=250 / keyint_min=24 / scenecut=0 / intra_refresh=0 / rc_lookahead=48 / rc=2pass / mbtree=1 / bitrate=4420 / ratetol=1.0 / qcomp=0.50 / qpmin=6 / qpmax=51 / qpstep=4 / cplxblur=20.0 / qblur=0.5 / vbv_maxrate=6630 / vbv_bufsize=8840 / nal_hrd=vbr / filler=0 / ip_ratio=1.40 / aq=1:1.00
    Default : Yes
    Forced : No

    Audio #1
    ID : 2
    Format : E-AC-3
    Format/Info : Enhanced AC-3
    Commercial name : Dolby Digital Plus
    Codec ID : A_EAC3
    Duration : 28 min 22 s
    Bit rate mode : Constant
    Bit rate : 640 kb/s
    Channel(s) : 6 channels
    Channel layout : L R C LFE Ls Rs
    Sampling rate : 48.0 kHz
    Frame rate : 31.250 FPS (1536 SPF)
    Compression mode : Lossy
    Stream size : 130 MiB (11%)
    Title : Thai
    Language : Thai
    Service kind : Complete Main
    Default : Yes
    Forced : No

    Audio #2
    ID : 3
    Format : E-AC-3
    Format/Info : Enhanced AC-3
    Commercial name : Dolby Digital Plus
    Codec ID : A_EAC3
    Duration : 28 min 22 s
    Bit rate mode : Constant
    Bit rate : 640 kb/s
    Channel(s) : 6 channels
    Channel layout : L R C LFE Ls Rs
    Sampling rate : 48.0 kHz
    Frame rate : 31.250 FPS (1536 SPF)
    Compression mode : Lossy
    Stream size : 130 MiB (11%)
    Title : Japanese
    Language : Japanese
    Service kind : Complete Main
    Default : No
    Forced : No

    Text #1
    ID : 4
    Format : UTF-8
    Codec ID : S_TEXT/UTF8
    Codec ID/Info : UTF-8 Plain Text
    Duration : 27 min 40 s
    Bit rate : 111 b/s
    Count of elements : 339
    Stream size : 22.7 KiB (0%)
    Title : Thai SRT From Netflix
    Language : Thai
    Default : Yes
    Forced : No

    Text #2
    ID : 5
    Format : UTF-8
    Codec ID : S_TEXT/UTF8
    Codec ID/Info : UTF-8 Plain Text
    Duration : 27 min 40 s
    Bit rate : 4 b/s
    Count of elements : 13
    Stream size : 1 008 Bytes (0%)
    Title : Thai SRT From Netflix Forced
    Language : Thai
    Default : No
    Forced : No

    Text #3
    ID : 6
    Format : UTF-8
    Codec ID : S_TEXT/UTF8
    Codec ID/Info : UTF-8 Plain Text
    Duration : 27 min 32 s
    Bit rate : 44 b/s
    Count of elements : 332
    Stream size : 8.94 KiB (0%)
    Title : English SRT
    Language : English
    Default : No
    Forced : No

    Text #4
    ID : 7
    Format : PGS
    Muxing mode : zlib
    Codec ID : S_HDMV/PGS
    Codec ID/Info : Picture based subtitle format used on BDs/HD-DVDs
    Duration : 27 min 40 s
    Bit rate : 35.5 kb/s
    Count of elements : 678
    Stream size : 7.03 MiB (1%)
    Title : Thai PGS [Angsana]
    Language : Thai
    Default : No
    Forced : No

    Text #5
    ID : 8
    Format : PGS
    Muxing mode : zlib
    Codec ID : S_HDMV/PGS
    Codec ID/Info : Picture based subtitle format used on BDs/HD-DVDs
    Duration : 27 min 40 s
    Bit rate : 35.5 kb/s
    Count of elements : 678
    Stream size : 7.03 MiB (1%)
    Title : Thai PGS [Angsana Yellow]
    Language : Thai
    Default : No
    Forced : No

    Text #6
    ID : 9
    Format : PGS
    Muxing mode : zlib
    Codec ID : S_HDMV/PGS
    Codec ID/Info : Picture based subtitle format used on BDs/HD-DVDs
    Duration : 27 min 40 s
    Bit rate : 34.9 kb/s
    Count of elements : 678
    Stream size : 6.91 MiB (1%)
    Title : Thai PGS [Niramit]
    Language : Thai
    Default : No
    Forced : No

    Text #7
    ID : 10
    Format : PGS
    Muxing mode : zlib
    Codec ID : S_HDMV/PGS
    Codec ID/Info : Picture based subtitle format used on BDs/HD-DVDs
    Duration : 27 min 40 s
    Bit rate : 34.9 kb/s
    Count of elements : 678
    Stream size : 6.91 MiB (1%)
    Title : Thai PGS [Niramit Yellow]
    Language : Thai
    Default : No
    Forced : No

    Text #8
    ID : 11
    Format : PGS
    Muxing mode : zlib
    Codec ID : S_HDMV/PGS
    Codec ID/Info : Picture based subtitle format used on BDs/HD-DVDs
    Duration : 27 min 40 s
    Bit rate : 35.2 kb/s
    Count of elements : 678
    Stream size : 6.96 MiB (1%)
    Title : Thai PGS [Saranun]
    Language : Thai
    Default : No
    Forced : No

    Text #9
    ID : 12
    Format : PGS
    Muxing mode : zlib
    Codec ID : S_HDMV/PGS
    Codec ID/Info : Picture based subtitle format used on BDs/HD-DVDs
    Duration : 27 min 40 s
    Bit rate : 35.2 kb/s
    Count of elements : 678
    Stream size : 6.96 MiB (1%)
    Title : Thai PGS [Saranun Yellow]
    Language : Thai
    Default : No
    Forced : No

    Text #10
    ID : 13
    Format : PGS
    Muxing mode : zlib
    Codec ID : S_HDMV/PGS
    Codec ID/Info : Picture based subtitle format used on BDs/HD-DVDs
    Duration : 27 min 32 s
    Bit rate : 28.2 kb/s
    Count of elements : 664
    Stream size : 5.55 MiB (0%)
    Title : English PGS
    Language : English
    Default : No
    Forced : No













    Download: filecondo
    7.13 GB
    http://www.filecondo.com/dl.php?f=uce2dd1JSoOG

    ******************************************
    1 http://www.filecondo.com/dl.php?f=M5d0f31JSnhi
    2 http://www.filecondo.com/dl.php?f=dfe9e51JSnih
    3 http://www.filecondo.com/dl.php?f=Rb32cd1JSnjf
    4 http://www.filecondo.com/dl.php?f=Led6d41JSnke
    5 http://www.filecondo.com/dl.php?f=P363051JSnlj
    6 http://www.filecondo.com/dl.php?f=Ga8f131JSnma

    Download: cornfile
    JU.ON.Origins.S01E01.1080p.NF.WEB-DL.DDP5.1.x264_SkiesIT.mkv - 1.1 GB
    JU.ON.Origins.S01E02.1080p.NF.WEB-DL.DDP5.1.x264_SkiesIT.mkv - 1.0 GB
    JU.ON.Origins.S01E03.1080p.NF.WEB-DL.DDP5.1.x264_SkiesIT.mkv - 1.1 GB
    JU.ON.Origins.S01E04.1080p.NF.WEB-DL.DDP5.1.x264_SkiesIT.mkv - 1.3 GB
    JU.ON.Origins.S01E05.1080p.NF.WEB-DL.DDP5.1.x264_SkiesIT.mkv - 1.5 GB
    JU.ON.Origins.S01E06.1080p.NF.WEB-DL.DDP5.1.x264_SkiesIT.mkv - 1.1 GB

    Download: mekafile
    1 http://www.mekafile.com/dl.php?f=hu193fcb8K31
    2 http://www.mekafile.com/dl.php?f=sLc68fcb8JWm
    3 http://www.mekafile.com/dl.php?f=yqd25fcb8JPA
    4 http://www.mekafile.com/dl.php?f=Uxe2f0cb8JIO
    5 http://www.mekafile.com/dl.php?f=KW743acb8KgN
    6 http://www.mekafile.com/dl.php?f=M2f8c9cb8K9N

  2. The Following User Says Thank You to Duckload.us For This Useful Post:

    Wesker_TOT (07-07-2020)

  3. #2
    Senior Member
    สมัครเมื่อ
    Dec 2013
    โพสต์
    2,139
    Thanks
    4,063
    Thanked 0 Times in 0 Posts
    ขอบคุณครับ...

  4. #3
    Senior Member
    สมัครเมื่อ
    May 2012
    โพสต์
    300
    Thanks
    0
    Thanked 0 Times in 0 Posts
    ขอบคุณครับ

+ ตอบกลับกระทู้

ข้อมูลกระทู้

Users Browsing this Thread

ในขณะนี้มี 1 ท่านดูกระทู้อยู่. (0 สมาชิกและ 1 ผู้เยี่ยมชม)

     

กฎการโพสต์ข้อความ

  • ท่าน ไม่สามารถ ตั้งกระทู้ใหม่ได้
  • ท่าน ไม่สามารถ ตอบกระทู้ได้
  • ท่าน ไม่สามารถ แนบไฟล์ได้
  • ท่าน ไม่สามารถ แก้ไขข้อความโพสต์ได้
  • BB code สถานะ เปิด
  • Smilies สถานะ เปิด
  • [IMG] สถานะ เปิด
  • HTML สถานะ ปิด