The Chang An Youth (2020) : ห้าดรุณแห่งฉางอัน

เสิ่นอีอีเกิดในเมืองที่ขึ้นชื่อเรื่องของทักษะการปร ุงอาหาร เมื่อวัยเด็กด้วยความบังเอิญทำให้เธอได้มาเป็นเพื่อน กับเสิ่นเตี๋ยอี ทว่าเตี๋ยอีกลับต้องจากโลกนี้ไปเสียก่อนเพราะอาการป่ วย ส่วนอีอีเพื่อเป็นการตอบแทนบุญคุณวาสนาที่ได้มาพบกัน ระหว่างเธอกับเตี๋ยอี เธอจึงตัดสินใจปลอมตัวเป็นเตี๋ยอีมุ่งสู่ฉางอันเพื่อ ทำภารกิจแต่งงาน แต่จริง ๆ แล้วคือเพื่อสืบต้นตอที่แท้จริงของการเสียชีวิตของเต ี๋ยอี เพื่อที่จะยืดเยื้องานแต่งออกไป อีอีได้ปลอมตัวเป็นบุรุษหนุ่ม เรื่องราวการเดินทางของอีอีในเมืองฉางอันเพิ่งจะเริ่ มต้นขึ้น เธอและเพื่อนร่วมทางของเธอจะโคจรมาเจอกันได้อย่างไร สถานการณ์จะราบรื่นหรือวุ่นวาย ความจริงที่เธอต้องการค้นหาสุดท้ายแล้วคำตอบคืออะไร


Format : Matroska
Format version : Version 4
File size : 1.18 GiB
Duration : 43 min 39 s
Overall bit rate : 3 874 kb/s
Movie name : The.Chang'an.Youth.2020.S01E01.1080p.WEB-DL.AC3.x264_SkiesIT
Encoded date : UTC 2020-06-02 06:20:41
Writing application : mkvmerge v47.0.0 ('Black Flag') 64-bit
Writing library : libebml v1.3.10 + libmatroska v1.5.2

Video
ID : 1
Format : AVC
Format/Info : Advanced Video Codec
Format profile : [email protected]
Format settings : CABAC / 4 Ref Frames
Format settings, CABAC : Yes
Format settings, Reference frames : 4 frames
Codec ID : V_MPEG4/ISO/AVC
Duration : 43 min 39 s
Bit rate : 2 603 kb/s
Width : 1 920 pixels
Height : 1 080 pixels
Display aspect ratio : 16:9
Frame rate mode : Constant
Frame rate : 25.000 FPS
Color space : YUV
Chroma subsampling : 4:2:0
Bit depth : 8 bits
Scan type : Progressive
Bits/(Pixel*Frame) : 0.050
Stream size : 813 MiB (67%)
Title : The.Chang'an.Youth.2020.S01E01.1080p.WEB-DL.AC3.x264_SkiesIT
Language : Chinese
Default : Yes
Forced : No
Color range : Limited
Color primaries : BT.709
Transfer characteristics : BT.709
Matrix coefficients : BT.709

Audio #1
ID : 2
Format : AC-3
Format/Info : Audio Coding 3
Commercial name : Dolby Digital
Codec ID : A_AC3
Duration : 43 min 39 s
Bit rate mode : Constant
Bit rate : 448 kb/s
Channel(s) : 6 channels
Channel layout : L R C LFE Ls Rs
Sampling rate : 48.0 kHz
Frame rate : 31.250 FPS (1536 SPF)
Compression mode : Lossy
Stream size : 140 MiB (12%)
Language : Thai
Service kind : Complete Main
Default : Yes
Forced : No

Audio #2
ID : 3
Format : AC-3
Format/Info : Audio Coding 3
Commercial name : Dolby Digital
Codec ID : A_AC3
Duration : 43 min 39 s
Bit rate mode : Constant
Bit rate : 448 kb/s
Channel(s) : 6 channels
Channel layout : L R C LFE Ls Rs
Sampling rate : 48.0 kHz
Frame rate : 31.250 FPS (1536 SPF)
Compression mode : Lossy
Stream size : 140 MiB (12%)
Language : Chinese
Service kind : Complete Main
Default : No
Forced : No

Audio #3
ID : 4
Format : AAC LC
Format/Info : Advanced Audio Codec Low Complexity
Codec ID : A_AAC-2
Duration : 43 min 39 s
Bit rate : 96.0 kb/s
Channel(s) : 2 channels
Channel layout : L R
Sampling rate : 48.0 kHz
Frame rate : 46.875 FPS (1024 SPF)
Compression mode : Lossy
Stream size : 30.0 MiB (2%)
Language : Thai
Default : No
Forced : No

Audio #4
ID : 5
Format : AAC LC
Format/Info : Advanced Audio Codec Low Complexity
Codec ID : A_AAC-2
Duration : 43 min 39 s
Bit rate : 96.0 kb/s
Channel(s) : 2 channels
Channel layout : L R
Sampling rate : 48.0 kHz
Frame rate : 46.875 FPS (1024 SPF)
Compression mode : Lossy
Stream size : 30.0 MiB (2%)
Language : Chinese
Default : No
Forced : No

Text #1
ID : 6
Format : UTF-8
Codec ID : S_TEXT/UTF8
Codec ID/Info : UTF-8 Plain Text
Duration : 39 min 8 s
Bit rate : 179 b/s
Count of elements : 897
Stream size : 51.3 KiB (0%)
Title : Thai SRT From WeTV
Language : Thai
Default : Yes
Forced : No

Text #2
ID : 7
Format : UTF-8
Codec ID : S_TEXT/UTF8
Codec ID/Info : UTF-8 Plain Text
Duration : 42 min 47 s
Bit rate : 65 b/s
Count of elements : 946
Stream size : 20.6 KiB (0%)
Title : English SRT From WeTV
Language : English
Default : No
Forced : No

Text #3
ID : 8
Format : PGS
Muxing mode : zlib
Codec ID : S_HDMV/PGS
Codec ID/Info : Picture based subtitle format used on BDs/HD-DVDs
Duration : 39 min 8 s
Bit rate : 55.3 kb/s
Count of elements : 1794
Stream size : 15.5 MiB (1%)
Title : Thai PGS [Angsana]
Language : Thai
Default : No
Forced : No

Text #4
ID : 9
Format : PGS
Muxing mode : zlib
Codec ID : S_HDMV/PGS
Codec ID/Info : Picture based subtitle format used on BDs/HD-DVDs
Duration : 39 min 8 s
Bit rate : 55.3 kb/s
Count of elements : 1794
Stream size : 15.5 MiB (1%)
Title : Thai PGS [Angsana Yellow]
Language : Thai
Default : No
Forced : No

Text #5
ID : 10
Format : PGS
Muxing mode : zlib
Codec ID : S_HDMV/PGS
Codec ID/Info : Picture based subtitle format used on BDs/HD-DVDs
Duration : 39 min 8 s
Bit rate : 55.6 kb/s
Count of elements : 1794
Stream size : 15.6 MiB (1%)
Title : Thai PGS [Saranun]
Language : Thai
Default : No
Forced : No

Text #6
ID : 11
Format : PGS
Muxing mode : zlib
Codec ID : S_HDMV/PGS
Codec ID/Info : Picture based subtitle format used on BDs/HD-DVDs
Duration : 39 min 8 s
Bit rate : 55.6 kb/s
Count of elements : 1794
Stream size : 15.6 MiB (1%)
Title : Thai PGS [Saranun Yellow]
Language : Thai
Default : No
Forced : No

Text #7
ID : 12
Format : PGS
Muxing mode : zlib
Codec ID : S_HDMV/PGS
Codec ID/Info : Picture based subtitle format used on BDs/HD-DVDs
Duration : 39 min 8 s
Bit rate : 54.3 kb/s
Count of elements : 1794
Stream size : 15.2 MiB (1%)
Title : Thai PGS [Niramit]
Language : Thai
Default : No
Forced : No

Text #8
ID : 13
Format : PGS
Muxing mode : zlib
Codec ID : S_HDMV/PGS
Codec ID/Info : Picture based subtitle format used on BDs/HD-DVDs
Duration : 39 min 8 s
Bit rate : 54.3 kb/s
Count of elements : 1794
Stream size : 15.2 MiB (1%)
Title : Thai PGS [Niramit Yellow]
Language : Thai
Default : No
Forced : No

Text #9
ID : 14
Format : PGS
Muxing mode : zlib
Codec ID : S_HDMV/PGS
Codec ID/Info : Picture based subtitle format used on BDs/HD-DVDs
Duration : 42 min 47 s
Bit rate : 49.3 kb/s
Count of elements : 1880
Stream size : 15.1 MiB (1%)
Title : English PGS
Language : English
Default : No
Forced : No












Download: filecondo
26.64 GB
http://www.filecondo.com/dl.php?f=df41f01JSlMt

********************************
1 http://www.filecondo.com/dl.php?f=ycfb1c1JSnvQ
2 http://www.filecondo.com/dl.php?f=f202ab1JSnwZ
3 http://www.filecondo.com/dl.php?f=U69ac11JSpmz
4 http://www.filecondo.com/dl.php?f=X258781JSnxL
5 http://www.filecondo.com/dl.php?f=1108f01JSnyJ
6 http://www.filecondo.com/dl.php?f=f8c7e41JSpnR
7 http://www.filecondo.com/dl.php?f=Kb8fff1JSnzL
8 http://www.filecondo.com/dl.php?f=k9c9aa1JSnAF
9 http://www.filecondo.com/dl.php?f=Edc6d81JSnBD
10 http://www.filecondo.com/dl.php?f=O1aaf41JSnCB
11 http://www.filecondo.com/dl.php?f=068cf31JSnDz
12 http://www.filecondo.com/dl.php?f=B361711JSnEw
13 http://www.filecondo.com/dl.php?f=4d8e551JSpqp
14 http://www.filecondo.com/dl.php?f=ebfba21JSnFv
15 http://www.filecondo.com/dl.php?f=v2b0d21JSnGt
16 http://www.filecondo.com/dl.php?f=M9d18b1JSnHs
17 http://www.filecondo.com/dl.php?f=Bfb3811JSpto
18 http://www.filecondo.com/dl.php?f=b316071JSnIp
19 http://www.filecondo.com/dl.php?f=V1e0421JSnJp
20 http://www.filecondo.com/dl.php?f=ic01c11JSnKk
21 http://www.filecondo.com/dl.php?f=Jf4de71JSnLi
22 http://www.filecondo.com/dl.php?f=Lbbf061JSnMh
23 http://www.filecondo.com/dl.php?f=D0d3481JSnNg
24 http://www.filecondo.com/dl.php?f=i6e01e1JSnOd

Download: cornfile
The.Chang'an.Youth.2020.S01E01.1080p.WEB-DL.AC3.x264_SkiesIT.mkv - 1.2 GB
The.Chang'an.Youth.2020.S01E02.1080p.WEB-DL.AC3.x264_SkiesIT.mkv - 1.3 GB
The.Chang'an.Youth.2020.S01E03.1080p.WEB-DL.AC3.x264_SkiesIT.mkv - 1.1 GB
The.Chang'an.Youth.2020.S01E04.1080p.WEB-DL.AC3.x264_SkiesIT.mkv - 1.1 GB
The.Chang'an.Youth.2020.S01E05.1080p.WEB-DL.AC3.x264_SkiesIT.mkv - 1.2 GB
The.Chang'an.Youth.2020.S01E06.1080p.WEB-DL.AC3.x264_SkiesIT.mkv - 1.1 GB
The.Chang'an.Youth.2020.S01E07.1080p.WEB-DL.AC3.x264_SkiesIT.mkv - 1.0 GB
The.Chang'an.Youth.2020.S01E08.1080p.WEB-DL.AC3.x264_SkiesIT.mkv - 1.2 GB
The.Chang'an.Youth.2020.S01E09.1080p.WEB-DL.AC3.x264_SkiesIT.mkv - 1.0 GB
The.Chang'an.Youth.2020.S01E10.1080p.WEB-DL.AC3.x264_SkiesIT.mkv - 1.0 GB
The.Chang'an.Youth.2020.S01E11.1080p.WEB-DL.AC3.x264_SkiesIT.mkv - 1.1 GB
The.Chang'an.Youth.2020.S01E12.1080p.WEB-DL.AC3.x264_SkiesIT.mkv - 1.1 GB
The.Chang'an.Youth.2020.S01E13.1080p.WEB-DL.AC3.x264_SkiesIT.mkv - 1.1 GB
The.Chang'an.Youth.2020.S01E14.1080p.WEB-DL.AC3.x264_SkiesIT.mkv - 1.1 GB
The.Chang'an.Youth.2020.S01E15.1080p.WEB-DL.AC3.x264_SkiesIT.mkv - 1.1 GB
The.Chang'an.Youth.2020.S01E16.1080p.WEB-DL.AC3.x264_SkiesIT.mkv - 1.2 GB
The.Chang'an.Youth.2020.S01E17.1080p.WEB-DL.AC3.x264_SkiesIT.mkv - 1.2 GB
The.Chang'an.Youth.2020.S01E18.1080p.WEB-DL.AC3.x264_SkiesIT.mkv - 1.0 GB
The.Chang'an.Youth.2020.S01E19.1080p.WEB-DL.AC3.x264_SkiesIT.mkv - 1.1 GB
The.Chang'an.Youth.2020.S01E20.1080p.WEB-DL.AC3.x264_SkiesIT.mkv - 974.6 MB
The.Chang'an.Youth.2020.S01E21.1080p.WEB-DL.AC3.x264_SkiesIT.mkv - 1.1 GB
The.Chang'an.Youth.2020.S01E22.1080p.WEB-DL.AC3.x264_SkiesIT.mkv - 1.1 GB
The.Chang'an.Youth.2020.S01E23.1080p.WEB-DL.AC3.x264_SkiesIT.mkv - 1.2 GB
The.Chang'an.Youth.2020.S01E24.1080p.WEB-DL.AC3.x264_SkiesIT.mkv - 1.1 GB

Download: mekafile
1 http://www.mekafile.com/dl.php?f=Nj012bcb8Mlo
2 http://www.mekafile.com/dl.php?f=Nx232fcb8Mz3
3 http://www.mekafile.com/dl.php?f=Bsb47acb8M7Q
4 http://www.mekafile.com/dl.php?f=b0f9eecb8MMu
5 http://www.mekafile.com/dl.php?f=zWd5c6cb8LzY
6 http://www.mekafile.com/dl.php?f=2S5901cb8NSe
7 http://www.mekafile.com/dl.php?f=It8d0dcb8NLl
8 http://www.mekafile.com/dl.php?f=XQ6887cb8N02
9 http://www.mekafile.com/dl.php?f=Fx8664cb8LGD
10 http://www.mekafile.com/dl.php?f=In252ccb8MFB
11 http://www.mekafile.com/dl.php?f=rD36a1cb8NEG
12 http://www.mekafile.com/dl.php?f=iI509dcb8Nkf
13 http://www.mekafile.com/dl.php?f=iS15f5cb8LUi
14 http://www.mekafile.com/dl.php?f=o47c7fcb8MeC
15 http://www.mekafile.com/dl.php?f=jqebbecb8NZ0
16 http://www.mekafile.com/dl.php?f=1he166cb8NdA
17 http://www.mekafile.com/dl.php?f=ID707dcb8Nr8
18 http://www.mekafile.com/dl.php?f=Wi9718cb8Msa
19 http://www.mekafile.com/dl.php?f=lRecf6cb8M14
20 http://www.mekafile.com/dl.php?f=jU8f39cb8MT9
21 http://www.mekafile.com/dl.php?f=6L6f13cb8O5F
22 http://www.mekafile.com/dl.php?f=by35f2cb8LNw
23 http://www.mekafile.com/dl.php?f=X7841ccb8NxU
24 http://www.mekafile.com/dl.php?f=Qjaff2cb8N6O