+ ตอบกลับกระทู้
สรุปผลการค้นหา 1 ถึง 2 จากทั้งหมด 2
  1. #1
    Administrators รูปส่วนตัว Duckload.us
    สมัครเมื่อ
    Dec 2010
    โพสต์
    116,973
    Thanks
    7
    Thanked 123,251 Times in 55,238 Posts

    Lightbulb [เกาหลี]-[Oh My Baby คุณบ.ก.ขอมีรักสักครั้ง Jang Na Ra, Go Joon, Park Byung Eun, Jung Gun Joo Ep.1-16/End]-HDTV.H.264.1080p. [From HD-TV]-[Soundtrack บรรยายไทย]




    ซีรี่ย์เกาหลี: Oh My Baby
    ชื่อภาษาไทย: คุณบ.ก.ขอมีรักสักครั้ง
    ประเภท: Romance, Comedy
    จำนวนตอน: 16
    นำแสดงโดย: Jang Na Ra, Go Joon, Park Byung Eun, Jung Gun Joo
    ผู้กำกับ: Nam Ki Hoon
    เขียนบทโดย: Noh Sun Jae
    ออกอากาศทางสถานีโทรทัศน์: tvN
    เริ่มออกอากาศ: 13 พฤษภาคม 2020 - 2 กรกฏาคม 2020
    เวลาออกอากาศ: ทุกวันพุธ & วันพฤหัสบดี 20:50 น. เวลาไทย / 22:50 น. ตามเวลาเกาหลี
    นักแสดง:
    Jang Na Ra as Jang Ha Ri (39, deputy of baby magazine The Baby )
    Ko Joon as Han Yi Sang (41, freelancer photographer)
    Park Byung Eun as Yoon Jae Young (39, pediatrician)
    Jung Gun Joo as Choi Kang Eu Tteum (27, newbie of The Baby advertising team)
    The Baby Editorial Department
    Kim Jae Hwa as Shim Jung Hwa (43, chief editor)
    Baek Seung Hee as Park Yun Ho (35, chief reporter)
    Lizzy as Choi Hyo Joo (26, reporter)
    Jung Sun Kyung as Lee So Yoon (24, newbie reporter)
    People Around Jang Ha Ri
    Kim Hye Ok as Lee Ok Ran (62, Ha Ri's mother)
    Lee Mi Do as Kim Eun Young (39, housewife)
    Moon Hyun Jung as Doctor Joo (40s, Ob/Gyn doctor)
    Kim Ye Ryung as Lee Ok Hee (59, Ha Ri's aunt)
    Lee Han Wie as Park Jae Han (61, Ha Ri's uncle)
    Jambi Studio
    Jo Hee Bong as Nam Soo Chul (43, chief)
    Son Hwa Ryung as Kim Sang Hee (34, freelancer photographer)
    People Around Han Yi Sang
    Lee Joo Shil as Soon Nam (60s, Yi Sang's mother)
    Dachae Media
    Jang Kwang as Chairman Jo (70s, the chairman)
    Jun Jin Ki as Joo Seung Tae (49, general manager)
    Yoo Seung Mok as Kim Chul Joong (45, head of department)
    Others
    Choi Hong Il as Mr. Jo (50s, restaurant owner)
    Special guest appearances
    Wang Ji Hye as Seo Jung Won (ep 2,7, Yoon Jae Young's ex wife)
    Lee Dong Gun as chief (ep 3)
    Yeo Hoe Hyun as sperm donor candidate (ep 3)
    Kwon Hae Sung as Eun Young's husband (ep 5)
    Kim Jung Hwa as Jung In Ah (ep 5-6, Yi Sang's ex-girlfriend)
    Lee Yong Nyuh as inn owner (ep 5)
    Jun Hye Bin as Kang Hyo Joo (ep 6, Yi Sang's celebrity friend)
    Sysopsis: จางฮารี (รับบทโดยจางนารา) สาวโสดวัย 39 ปีที่ทำงานให้กับนิตยสารแม่และเด็กที่ชื่อ “เดอะ เบบี้” เมื่อสิบปีก่อนเธอได้ยอมแพ้ให้กับเรื่องความรักและกา รแต่งงานเพื่อไล่ตามความสำเร็จในหน้าที่การงาน แต่เธอก็ยังอยากที่จะมีลูกของตัวเอง เธอมีผู้ชายสามคนที่รายล้อมเธอซึ่งอาจจะเหมาะสมที่จะ เป็นพ่อของลูกและเธอก็ต้องเลือก เรื่องราวจะเป็นอย่างไร เชิญติดตามชมกันได้ในซีรี่ส์เกาหลี Oh My Baby คุณบ.ก.ขอมีรักสักครั้ง
    Credit: franky

    General
    Unique ID : 196592051705926115204035373053807088171 (0x93E6407DE34C74087AB672F94E5AD22B)
    Complete name : K:Oh My Baby คุณบ.ก.ขอมีรักสักครั้งOh.My.Baby.E09.1080p.WEB-DL.Viu.AAC.H.264.mkv
    Format : Matroska
    Format version : Version 4
    File size : 1.07 GiB
    Duration : 1 h 10 min
    Overall bit rate mode : Variable
    Overall bit rate : 2 182 kb/s
    Encoded date : UTC 2020-07-03 04:11:17
    Writing application : mkvmerge v19.0.0 ('Brave Captain') 64-bit
    Writing library : libebml v1.3.5 + libmatroska v1.4.8

    Video
    ID : 1
    Format : AVC
    Format/Info : Advanced Video Codec
    Format profile : [email protected]
    Format settings : CABAC / 4 Ref Frames
    Format settings, CABAC : Yes
    Format settings, Reference fra : 4 frames
    Codec ID : V_MPEG4/ISO/AVC
    Duration : 1 h 10 min
    Bit rate mode : Variable
    Bit rate : 2 075 kb/s
    Maximum bit rate : 4 500 kb/s
    Width : 1 920 pixels
    Height : 1 080 pixels
    Display aspect ratio : 16:9
    Frame rate mode : Constant
    Frame rate : 29.970 (30000/1001) FPS
    Original frame rate : 29.970 (29970/1000) FPS
    Color space : YUV
    Chroma subsampling : 4:2:0
    Bit depth : 8 bits
    Scan type : Progressive
    Bits/(Pixel*Frame) : 0.033
    Stream size : 1.02 GiB (95%)
    Writing library : VOLO1.4.1
    Default : Yes
    Forced : No

    Audio
    ID : 2
    Format : AAC LC
    Format/Info : Advanced Audio Codec Low Complexity
    Codec ID : A_AAC-2
    Duration : 1 h 10 min
    Bit rate : 96.0 kb/s
    Channel(s) : 2 channels
    Channel layout : L R
    Sampling rate : 48.0 kHz
    Frame rate : 46.875 FPS (1024 SPF)
    Compression mode : Lossy
    Delay relative to video : -21 ms
    Stream size : 48.3 MiB (4%)
    Language : Korean
    Default : Yes
    Forced : No

    Text #1
    ID : 3
    Format : UTF-8
    Codec ID : S_TEXT/UTF8
    Codec ID/Info : UTF-8 Plain Text
    Duration : 1 h 9 min
    Bit rate : 130 b/s
    Count of elements : 1016
    Stream size : 66.2 KiB (0%)
    Language : Thai
    Default : Yes
    Forced : No

    Text #2
    ID : 4
    Format : PGS
    Muxing mode : zlib
    Codec ID : S_HDMV/PGS
    Codec ID/Info : Picture based subtitle format used on BDs/HD-DVDs
    Duration : 1 h 9 min
    Bit rate : 20.2 kb/s
    Count of elements : 2032
    Stream size : 10.0 MiB (1%)
    Language : Thai
    Default : No
    Forced : No



    1
    http://www.filecondo.com/dl.php?f=Nd37f61JSqWJ
    2
    http://www.filecondo.com/dl.php?f=o5ae5c1JSqXH
    3
    http://www.filecondo.com/dl.php?f=b7c4ce1JSqYD
    4
    http://www.filecondo.com/dl.php?f=f9d1cd1JSqZC
    5
    http://www.filecondo.com/dl.php?f=58f96d1JSr0A
    6
    http://www.filecondo.com/dl.php?f=81a3f21JSr1y
    7
    http://www.filecondo.com/dl.php?f=d61ba61JSr2B
    8
    http://www.filecondo.com/dl.php?f=v8973e1JSr3y
    9
    http://www.filecondo.com/dl.php?f=l6a8641JSr4t
    10
    http://www.filecondo.com/dl.php?f=79016a1JSr5q
    11
    http://www.filecondo.com/dl.php?f=G9bd1c1JSr6s
    12
    http://www.filecondo.com/dl.php?f=Xb96e71JSr7o
    13
    http://www.filecondo.com/dl.php?f=Xfbc131JSr8k
    14
    http://www.filecondo.com/dl.php?f=Qa56561JSr9i
    15
    http://www.filecondo.com/dl.php?f=u778f41JSrag
    16
    http://www.filecondo.com/dl.php?f=l8736d1JSrbf

  2. The Following User Says Thank You to Duckload.us For This Useful Post:

    kappa (07-26-2020)

  3. #2
    Senior Member
    สมัครเมื่อ
    May 2012
    โพสต์
    332
    Thanks
    0
    Thanked 0 Times in 0 Posts
    ขอบคุณครับ

+ ตอบกลับกระทู้

ข้อมูลกระทู้

Users Browsing this Thread

ในขณะนี้มี 1 ท่านดูกระทู้อยู่. (0 สมาชิกและ 1 ผู้เยี่ยมชม)

     

กฎการโพสต์ข้อความ

  • ท่าน ไม่สามารถ ตั้งกระทู้ใหม่ได้
  • ท่าน ไม่สามารถ ตอบกระทู้ได้
  • ท่าน ไม่สามารถ แนบไฟล์ได้
  • ท่าน ไม่สามารถ แก้ไขข้อความโพสต์ได้
  • BB code สถานะ เปิด
  • Smilies สถานะ เปิด
  • [IMG] สถานะ เปิด
  • HTML สถานะ ปิด