+ ตอบกลับกระทู้
สรุปผลการค้นหา 1 ถึง 3 จากทั้งหมด 3
  1. #1
    Administrators รูปส่วนตัว Duckload.us
    สมัครเมื่อ
    Dec 2010
    โพสต์
    116,914
    Thanks
    7
    Thanked 123,227 Times in 55,232 Posts

    Question [ฝรั่ง]-UglyDolls ผจญแดนตุ๊กตามหัศจรรย์ 2019.1080p.BluRay.H264.AC3-เสียงไทย ซับไทย มาสเตอร์ HBO-Blu-ray.H.264.1080p. [Master]-[พากย์ไทย บรรยายไทย]



    UglyDolls_(2019)
    ขอต้อนรับเข้าสู่ อักลี่วิลล์ เมืองที่รวบรวมเอาตุ๊กตาที่แสนน่าเกลียด และ แปลกประหลาด แต่เต็มไปด้วยความมนต์วิเศษและแสนน่ารัก
    ม๊อกซีและผองเพื่อนอยู่ในโลกที่เปี่ยมไปด้วยความสดใส และจินตนการแห่งนี้ แต่เมื่อม๊อกซีเกิดสงสัยว่ามีอะไรอยู่ข้างนอกเมืองที ่เธออยู่
    เธอจึงชักชวนเพื่อนๆ ร่วมออกเดินทาง เพื่อไปพบเจอกับเมือง เพอร์เฟ็กชั่น เมืองที่เป็นสถานที่เตรียมความพร้อมสำหรับตุ๊กตาสุดส มบูรณ์
    โดยมีเป้าหมายคือการเรียนจบออกไปพบกับ โลกที่แท้จริงและกลายเป็นตุ๊กตาที่รักของเด็กๆ!!!

    Format : Matroska
    Format version : Version 4
    File size : 2.00 GiB
    Duration : 1 h 27 min
    Overall bit rate : 3 256 kb/s
    Encoded date : UTC 2020-07-07 07:07:18
    Writing application : mkvmerge v48.0.0 ('Fortress Around Your Heart') 64-bit
    Writing library : libebml v1.4.0 + libmatroska v1.6.0

    Video
    ID : 1
    Format : AVC
    Format/Info : Advanced Video Codec
    Format profile : [email protected]
    Format settings : CABAC / 4 Ref Frames
    Format settings, CABAC : Yes
    Format settings, Reference frames : 4 frames
    Codec ID : V_MPEG4/ISO/AVC
    Duration : 1 h 27 min
    Bit rate : 2 500 kb/s
    Width : 1 920 pixels
    Height : 1 040 pixels
    Display aspect ratio : 1.85:1
    Frame rate mode : Constant
    Frame rate : 23.976 (23976/1000) FPS
    Color space : YUV
    Chroma subsampling : 4:2:0
    Bit depth : 8 bits
    Scan type : Progressive
    Bits/(Pixel*Frame) : 0.052
    Stream size : 1.53 GiB (77%)
    Writing library : x264 core 152 r2851M ba24899
    Encoding settings : cabac=1 / ref=4 / deblock=1:-1:-1 / analyse=0x3:0x113 / me=umh / subme=9 / psy=1 / psy_rd=1.00:0.15 / mixed_ref=1 / me_range=24 / chroma_me=1 / trellis=2 / 8x8dct=1 / cqm=0 / deadzone=21,11 / fast_pskip=1 / chroma_qp_offset=-3 / threads=32 / lookahead_threads=4 / sliced_threads=0 / nr=0 / decimate=1 / interlaced=0 / bluray_compat=0 / constrained_intra=0 / bframes=3 / b_pyramid=2 / b_adapt=2 / b_bias=0 / direct=3 / weightb=1 / open_gop=0 / weightp=2 / keyint=250 / keyint_min=25 / scenecut=40 / intra_refresh=0 / rc_lookahead=50 / rc=2pass / mbtree=1 / bitrate=2500 / ratetol=1.0 / qcomp=0.60 / qpmin=0 / qpmax=69 / qpstep=4 / cplxblur=20.0 / qblur=0.5 / vbv_maxrate=31250 / vbv_bufsize=31250 / nal_hrd=none / filler=0 / ip_ratio=1.40 / aq=3:1.00
    Default : Yes
    Forced : No

    Audio #1
    ID : 2
    Format : AAC LC
    Format/Info : Advanced Audio Codec Low Complexity
    Codec ID : A_AAC-2
    Duration : 1 h 27 min
    Bit rate : 224 kb/s
    Channel(s) : 6 channels
    Channel layout : C L R Ls Rs LFE
    Sampling rate : 48.0 kHz
    Frame rate : 46.875 FPS (1024 SPF)
    Compression mode : Lossy
    Delay relative to video : -43 ms
    Stream size : 141 MiB (7%)
    Language : English
    Default : Yes
    Forced : No

    Audio #2
    ID : 5
    Format : AC-3
    Format/Info : Audio Coding 3
    Commercial name : Dolby Digital
    Codec ID : A_AC3
    Duration : 1 h 27 min
    Bit rate mode : Constant
    Bit rate : 512 kb/s
    Channel(s) : 2 channels
    Channel layout : L R
    Sampling rate : 48.0 kHz
    Frame rate : 31.250 FPS (1536 SPF)
    Bit depth : 16 bits
    Compression mode : Lossy
    Delay relative to video : -43 ms
    Stream size : 322 MiB (16%)
    Language : Thai
    Service kind : Complete Main
    Default : No
    Forced : No

    Text #1
    ID : 3
    Format : VobSub
    Muxing mode : zlib
    Codec ID : S_VOBSUB
    Codec ID/Info : Picture based subtitle format used on DVDs
    Duration : 1 h 26 min
    Bit rate : 12.9 kb/s
    Count of elements : 1535
    Stream size : 7.96 MiB (0%)
    Language : English
    Default : Yes
    Forced : No

    Text #2
    ID : 4
    Format : VobSub
    Muxing mode : zlib
    Codec ID : S_VOBSUB
    Codec ID/Info : Picture based subtitle format used on DVDs
    Duration : 1 h 16 min
    Bit rate : 18.2 kb/s
    Count of elements : 1283
    Stream size : 9.96 MiB (0%)
    Language : Thai
    Default : No
    Forced : No






    Download: cornfile
    http://cornfile.com/g60u10nzpt48
    Download: mekafile
    http://www.mekafile.com/dl.php?f=CL1901cbCaW3

  2. The Following 2 Users Say Thank You to Duckload.us For This Useful Post:

    gaszolineskywalker (07-23-2020), Jodz14 (07-18-2020)

  3. #2
    Senior Member
    สมัครเมื่อ
    Jul 2013
    โพสต์
    882
    Thanks
    0
    Thanked 0 Times in 0 Posts
    ขอบคุณครับ

  4. #3
    Senior Member
    สมัครเมื่อ
    Oct 2012
    โพสต์
    1,183
    Thanks
    2,117
    Thanked 0 Times in 0 Posts
    ขอบคุณครับ

+ ตอบกลับกระทู้

ข้อมูลกระทู้

Users Browsing this Thread

ในขณะนี้มี 1 ท่านดูกระทู้อยู่. (0 สมาชิกและ 1 ผู้เยี่ยมชม)

     

กฎการโพสต์ข้อความ

  • ท่าน ไม่สามารถ ตั้งกระทู้ใหม่ได้
  • ท่าน ไม่สามารถ ตอบกระทู้ได้
  • ท่าน ไม่สามารถ แนบไฟล์ได้
  • ท่าน ไม่สามารถ แก้ไขข้อความโพสต์ได้
  • BB code สถานะ เปิด
  • Smilies สถานะ เปิด
  • [IMG] สถานะ เปิด
  • HTML สถานะ ปิด