+ ตอบกลับกระทู้
สรุปผลการค้นหา 1 ถึง 3 จากทั้งหมด 3
  1. #1
    Administrators รูปส่วนตัว Duckload.us
    สมัครเมื่อ
    Dec 2010
    โพสต์
    116,994
    Thanks
    7
    Thanked 123,296 Times in 55,256 Posts

    Question [ฝรั่ง] • [* ใหม่ MASTER *] • Greyhound (2020) เกรย์ฮาวด์ • [เสียงอังกฤษ E-AC-3 5.1] • [บรรยายไทย + อังกฤษ + Srt,PGS คมชัด] • [From Apple TV+ 1080p] • ทอม แฮงส์ •



    Greyhound ภาพยนตร์แนวแอ็คชั่นที่ให้แรงบันดาลใจ เขียนและนำแสดงโดย Tom Hanks ฉายพร้อมกันกว่า 100 ประเทศทั่วโลก 10 ก.ค.นี้ บน Apple TV+

    Greyhound อ้างอิงจากนิยายเรื่อง The Good Shepherd โดย C.S. Forester โดยมี Tom Hanks รับเป็นเป็นนาวิกโยธิน ซึ่งรับหน้าที่กัปตันเป็นครั้งแรก นำกองทัพเรือ 37 ลำซึ่งบรรทุกทหารหลายพันนายพร้อมสิ่งของจำเป็นข้ามมห าสมุทร Atalantic ในช่วงสงครามโลกครั้งที่สอง เป็นเวลาห้าวันที่กองทัพเรือต้องเดินทางโดยปราศจากกา รคุ้มกันทางอากาศ กัปตันและกองกำลังเล็กๆ อันประกอบไปด้วยเรือ 3 ลำ ต้องฝ่าผ่านพื้นที่ที่เรียกว่า “Black Pit” ต่อสู้กับกองทัพเรือนาซี พร้อมกับปกป้องทรัพย์สินและกองกำลังทหาร Greyhound

    ได้รับแรงบันดาลใจจากเหตุการณ์ต่อสู้ Battle of the Atlantic ซึ่งเกิดขึ้นในเดือนแรกๆ ของความร่วมมือระหว่างอเมริกา อังกฤษ และกองกำลังสัมพันธมิตร ได้ Stephen Graham, Rob Morgan และ Elisabeth Shue มาร่วมแสดง Greyhound เขียนโดย Tom Hanks กำกับโดย Aaron Schneider และสร้างโดย Gary Goetzman

    Format : Matroska
    Format version : Version 4
    File size : 6.95 GiB
    Duration : 1 h 31 min
    Overall bit rate : 10.9 Mb/s
    Movie name : จัดทำโดย BeerT (เบียร์)
    Encoded date : UTC 2020-07-10 05:51:37
    Writing application : mkvmerge v47.0.0 ('Black Flag') 64-bit
    Writing library : libebml v1.3.10 + libmatroska v1.5.2

    Video
    ID : 1
    Format : AVC
    Format/Info : Advanced Video Codec
    Format profile : [email protected]
    Format settings : CABAC / 5 Ref Frames
    Format settings, CABAC : Yes
    Format settings, Reference fra : 5 frames
    Codec ID : V_MPEG4/ISO/AVC
    Duration : 1 h 31 min
    Bit rate : 10.0 Mb/s
    Width : 1 920 pixels
    Height : 802 pixels
    Display aspect ratio : 2.40:1
    Frame rate mode : Constant
    Frame rate : 23.976 (24000/1001) FPS
    Color space : YUV
    Chroma subsampling : 4:2:0
    Bit depth : 8 bits
    Scan type : Progressive
    Bits/(Pixel*Frame) : 0.272
    Stream size : 6.43 GiB (92%)
    Title : จัดทำโดย BeerT (เบียร์)
    Default : Yes
    Forced : No
    Color range : Limited
    Color primaries : BT.709
    Transfer characteristics : BT.709
    Matrix coefficients : BT.709

    Audio
    ID : 2
    Format : E-AC-3 JOC
    Format/Info : Enhanced AC-3 with Joint Object Coding
    Commercial name : Dolby Digital Plus with Dolby Atmos
    Codec ID : A_EAC3
    Duration : 1 h 31 min
    Bit rate mode : Constant
    Bit rate : 768 kb/s
    Channel(s) : 6 channels
    Channel layout : L R C LFE Ls Rs
    Sampling rate : 48.0 kHz
    Frame rate : 31.250 FPS (1536 SPF)
    Compression mode : Lossy
    Stream size : 504 MiB (7%)
    Title : Eng E-AC-3 5.1
    Language : English
    Service kind : Complete Main
    Default : Yes
    Forced : No
    Complexity index : 16
    Number of dynamic objects : 15
    Bed channel count : 1 channel
    Bed channel configuration : LFE

    Text #1
    ID : 3
    Format : PGS
    Muxing mode : zlib
    Codec ID : S_HDMV/PGS
    Codec ID/Info : Picture based subtitle format used on BDs/HD-DVDs
    Duration : 1 h 30 min
    Bit rate : 52.4 kb/s
    Count of elements : 2186
    Stream size : 34.1 MiB (0%)
    Title : Thai PGS
    Language : Thai
    Default : Yes
    Forced : No

    Text #2
    ID : 4
    Format : PGS
    Muxing mode : zlib
    Codec ID : S_HDMV/PGS
    Codec ID/Info : Picture based subtitle format used on BDs/HD-DVDs
    Duration : 1 h 30 min
    Bit rate : 52.4 kb/s
    Count of elements : 2186
    Stream size : 34.1 MiB (0%)
    Title : Thai PGS Out
    Language : Thai
    Default : No
    Forced : No

    Text #3
    ID : 5
    Format : UTF-8
    Codec ID : S_TEXT/UTF8
    Codec ID/Info : UTF-8 Plain Text
    Duration : 1 h 30 min
    Bit rate : 154 b/s
    Count of elements : 1093
    Stream size : 103 KiB (0%)
    Title : Thai Srt By Beer
    Language : Thai
    Default : No
    Forced : No

    Text #4
    ID : 6
    Format : UTF-8
    Codec ID : S_TEXT/UTF8
    Codec ID/Info : UTF-8 Plain Text
    Duration : 1 h 20 min
    Bit rate : 66 b/s
    Count of elements : 1033
    Stream size : 38.8 KiB (0%)
    Title : Eng Srt
    Language : English
    Default : No
    Forced : No

    Text #5
    ID : 7
    Format : UTF-8
    Codec ID : S_TEXT/UTF8
    Codec ID/Info : UTF-8 Plain Text
    Duration : 1 h 20 min
    Bit rate : 72 b/s
    Count of elements : 1105
    Stream size : 42.3 KiB (0%)
    Title : Eng (SDH) Srt
    Language : English
    Default : No
    Forced : No














    Download: cornfile
    http://cornfile.com/u29utv7u5vn7
    Download: mekafile
    http://www.mekafile.com/dl.php?f=RNe1b2cbC6bu

  2. The Following 3 Users Say Thank You to Duckload.us For This Useful Post:

    jangska (07-16-2020), noi54 (07-11-2020), Tatum03 (07-11-2020)

  3. #2
    Senior Member
    สมัครเมื่อ
    Oct 2013
    ที่อยู่
    Thailand
    โพสต์
    1,352
    Thanks
    1,223
    Thanked 0 Times in 0 Posts
    ขอบคุณมาก

  4. #3
    Senior Member
    สมัครเมื่อ
    Jul 2013
    โพสต์
    888
    Thanks
    0
    Thanked 0 Times in 0 Posts
    ขอบคุณครับ

+ ตอบกลับกระทู้

ข้อมูลกระทู้

Users Browsing this Thread

ในขณะนี้มี 1 ท่านดูกระทู้อยู่. (0 สมาชิกและ 1 ผู้เยี่ยมชม)

     

กฎการโพสต์ข้อความ

  • ท่าน ไม่สามารถ ตั้งกระทู้ใหม่ได้
  • ท่าน ไม่สามารถ ตอบกระทู้ได้
  • ท่าน ไม่สามารถ แนบไฟล์ได้
  • ท่าน ไม่สามารถ แก้ไขข้อความโพสต์ได้
  • BB code สถานะ เปิด
  • Smilies สถานะ เปิด
  • [IMG] สถานะ เปิด
  • HTML สถานะ ปิด