+ ตอบกลับกระทู้
สรุปผลการค้นหา 1 ถึง 5 จากทั้งหมด 5
  1. #1
    Administrators รูปส่วนตัว Duckload.us
    สมัครเมื่อ
    Dec 2010
    โพสต์
    116,868
    Thanks
    7
    Thanked 123,175 Times in 55,211 Posts

    Question [ฝรั่ง]-[* ใหม่ร้อนๆ!! Netflix *] The Old Guard (2020) : ดิ โอลด์ การ์ด [เสียงไทย 5.1 + เสียงอังกฤษ 5.1] [บรรยายไทย + อังกฤษ] [เสียง + ซับไทย Master From Netflix + ซับ SRT , PGS]-WEB-DL.H.264.1080p. [Modified]-[พากย์ไทย บรรยายไทย]




    เรื่องราวชีวิตอมตะของนักรบสาว แอนดี้ (ชาร์ลิซ เธอรอน) ผู้ที่ถูกพันธนาการด้วยความอมตะมานานนับพันปีพร้อมด้ วยเหล่านักสู้รับจ้างผู้ไม่มีวันตาย พวกเขาได้ร่วมกันต่อสู้เพื่อปกป้องโลกมนุษย์มายาวนาน หลายศตวรรษ วันหนึ่งภัยร้ายได้คุกคามกลุ่มนักสู้ของเธอ พร้อมกับความลับของความเป็นอมตะกำลังจะถูกเปิดเผย แอนดี้ และสมาชิกคนใหม่ของกลุ่ม อย่าง ไนล์ (กิกิ เลย์น) จึงต้องร่วมมือกันหาทางยับยั้งผู้บงการที่อยู่เบื้อง หลังเหตุการณ์ทั้งหมด


    Format : Matroska
    Format version : Version 4
    File size : 5.34 GiB
    Duration : 2 h 5 min
    Overall bit rate mode : Variable
    Overall bit rate : 6 092 kb/s
    Movie name : The.Old.Guard.2020.1080p.NF.WEB-DL.DDP5.1.x264_SkiesIT
    Encoded date : UTC 2020-07-10 09:23:55
    Writing application : mkvmerge v48.0.0 ('Fortress Around Your Heart') 64-bit
    Writing library : libebml v1.4.0 + libmatroska v1.6.0

    Video
    ID : 1
    Format : AVC
    Format/Info : Advanced Video Codec
    Format profile : [email protected]
    Format settings : CABAC / 3 Ref Frames
    Format settings, CABAC : Yes
    Format settings, Reference frames : 3 frames
    Codec ID : V_MPEG4/ISO/AVC
    Duration : 2 h 5 min
    Bit rate mode : Variable
    Bit rate : 4 640 kb/s
    Maximum bit rate : 6 960 kb/s
    Width : 1 920 pixels
    Height : 1 080 pixels
    Display aspect ratio : 16:9
    Frame rate mode : Constant
    Frame rate : 24.000 FPS
    Color space : YUV
    Chroma subsampling : 4:2:0
    Bit depth : 8 bits
    Scan type : Progressive
    Bits/(Pixel*Frame) : 0.093
    Stream size : 4.03 GiB (75%)
    Title : The.Old.Guard.2020.1080p.NF.WEB-DL.DDP5.1.x264_SkiesIT
    Writing library : x264 core 148 r2721 6d200cf
    Encoding settings : cabac=1 / ref=3 / deblock=1:0:0 / analyse=0x1:0x111 / me=umh / subme=10 / psy=1 / psy_rd=1.00:0.00 / mixed_ref=1 / me_range=24 / chroma_me=1 / trellis=2 / 8x8dct=0 / cqm=0 / deadzone=21,11 / fast_pskip=1 / chroma_qp_offset=-2 / threads=8 / lookahead_threads=1 / sliced_threads=0 / nr=0 / decimate=1 / interlaced=0 / bluray_compat=0 / stitchable=1 / constrained_intra=0 / bframes=2 / b_pyramid=0 / b_adapt=2 / b_bias=0 / direct=3 / weightb=1 / open_gop=0 / weightp=2 / keyint=250 / keyint_min=24 / scenecut=0 / intra_refresh=0 / rc_lookahead=48 / rc=2pass / mbtree=1 / bitrate=4640 / ratetol=1.0 / qcomp=0.50 / qpmin=6 / qpmax=51 / qpstep=4 / cplxblur=20.0 / qblur=0.5 / vbv_maxrate=6960 / vbv_bufsize=9280 / nal_hrd=vbr / filler=0 / ip_ratio=1.40 / aq=1:1.00
    Language : English
    Default : Yes
    Forced : No

    Audio #1
    ID : 2
    Format : E-AC-3 JOC
    Format/Info : Enhanced AC-3 with Joint Object Coding
    Commercial name : Dolby Digital Plus with Dolby Atmos
    Codec ID : A_EAC3
    Duration : 2 h 5 min
    Bit rate mode : Constant
    Bit rate : 768 kb/s
    Channel(s) : 6 channels
    Channel layout : L R C LFE Ls Rs
    Sampling rate : 48.0 kHz
    Frame rate : 31.250 FPS (1536 SPF)
    Compression mode : Lossy
    Stream size : 690 MiB (13%)
    Title : English
    Language : English
    Service kind : Complete Main
    Default : No
    Forced : No
    Complexity index : 16
    Number of dynamic objects : 15
    Bed channel count : 1 channel
    Bed channel configuration : LFE

    Audio #2
    ID : 3
    Format : E-AC-3
    Format/Info : Enhanced AC-3
    Commercial name : Dolby Digital Plus
    Codec ID : A_EAC3
    Duration : 2 h 5 min
    Bit rate mode : Constant
    Bit rate : 640 kb/s
    Channel(s) : 6 channels
    Channel layout : L R C LFE Ls Rs
    Sampling rate : 48.0 kHz
    Frame rate : 31.250 FPS (1536 SPF)
    Compression mode : Lossy
    Stream size : 575 MiB (11%)
    Title : Thai
    Language : Thai
    Service kind : Complete Main
    Default : Yes
    Forced : No

    Text #1
    ID : 4
    Format : UTF-8
    Codec ID : S_TEXT/UTF8
    Codec ID/Info : UTF-8 Plain Text
    Duration : 2 h 3 min
    Bit rate : 78 b/s
    Count of elements : 1178
    Stream size : 71.0 KiB (0%)
    Title : Thai SRT From Netflix
    Language : Thai
    Default : Yes
    Forced : No

    Text #2
    ID : 5
    Format : UTF-8
    Codec ID : S_TEXT/UTF8
    Codec ID/Info : UTF-8 Plain Text
    Duration : 2 h 2 min
    Bit rate : 2 b/s
    Count of elements : 43
    Stream size : 2.27 KiB (0%)
    Title : Thai SRT From Netflix Forced
    Language : Thai
    Default : No
    Forced : No

    Text #3
    ID : 6
    Format : UTF-8
    Codec ID : S_TEXT/UTF8
    Codec ID/Info : UTF-8 Plain Text
    Duration : 1 h 56 min
    Bit rate : 47 b/s
    Count of elements : 1492
    Stream size : 40.6 KiB (0%)
    Title : English SRT
    Language : English
    Default : No
    Forced : No

    Text #4
    ID : 7
    Format : PGS
    Muxing mode : zlib
    Codec ID : S_HDMV/PGS
    Codec ID/Info : Picture based subtitle format used on BDs/HD-DVDs
    Duration : 2 h 3 min
    Bit rate : 25.2 kb/s
    Count of elements : 2356
    Stream size : 22.3 MiB (0%)
    Title : Thai PGS [Angsana]
    Language : Thai
    Default : No
    Forced : No

    Text #5
    ID : 8
    Format : PGS
    Muxing mode : zlib
    Codec ID : S_HDMV/PGS
    Codec ID/Info : Picture based subtitle format used on BDs/HD-DVDs
    Duration : 2 h 3 min
    Bit rate : 25.2 kb/s
    Count of elements : 2356
    Stream size : 22.3 MiB (0%)
    Title : Thai PGS [Angsana Yellow]
    Language : Thai
    Default : No
    Forced : No

    Text #6
    ID : 9
    Format : PGS
    Muxing mode : zlib
    Codec ID : S_HDMV/PGS
    Codec ID/Info : Picture based subtitle format used on BDs/HD-DVDs
    Duration : 2 h 3 min
    Bit rate : 24.9 kb/s
    Count of elements : 2356
    Stream size : 22.0 MiB (0%)
    Title : Thai PGS [Niramit]
    Language : Thai
    Default : No
    Forced : No

    Text #7
    ID : 10
    Format : PGS
    Muxing mode : zlib
    Codec ID : S_HDMV/PGS
    Codec ID/Info : Picture based subtitle format used on BDs/HD-DVDs
    Duration : 2 h 3 min
    Bit rate : 24.9 kb/s
    Count of elements : 2356
    Stream size : 22.0 MiB (0%)
    Title : Thai PGS [Niramit Yellow]
    Language : Thai
    Default : No
    Forced : No

    Text #8
    ID : 11
    Format : PGS
    Muxing mode : zlib
    Codec ID : S_HDMV/PGS
    Codec ID/Info : Picture based subtitle format used on BDs/HD-DVDs
    Duration : 2 h 3 min
    Bit rate : 24.9 kb/s
    Count of elements : 2356
    Stream size : 22.1 MiB (0%)
    Title : Thai PGS [Sarabun]
    Language : Thai
    Default : No
    Forced : No

    Text #9
    ID : 12
    Format : PGS
    Muxing mode : zlib
    Codec ID : S_HDMV/PGS
    Codec ID/Info : Picture based subtitle format used on BDs/HD-DVDs
    Duration : 2 h 3 min
    Bit rate : 24.9 kb/s
    Count of elements : 2356
    Stream size : 22.1 MiB (0%)
    Title : Thai PGS [Sarabun Yellow]
    Language : Thai
    Default : No
    Forced : No

    Text #10
    ID : 13
    Format : PGS
    Muxing mode : zlib
    Codec ID : S_HDMV/PGS
    Codec ID/Info : Picture based subtitle format used on BDs/HD-DVDs
    Duration : 1 h 56 min
    Bit rate : 30.9 kb/s
    Count of elements : 2984
    Stream size : 25.8 MiB (0%)
    Title : English PGS
    Language : English
    Default : No
    Forced : No














    Download: cornfile
    http://cornfile.com/h6zfqp66kaor
    Download: mekafile
    http://www.mekafile.com/dl.php?f=FQ3e82cbCZ76

  2. The Following 8 Users Say Thank You to Duckload.us For This Useful Post:

    bigbang06 (07-12-2020), jangska (07-16-2020), Jodz14 (07-12-2020), NaiWan (07-11-2020), noi54 (07-11-2020), spidertoon (07-11-2020), Tatum03 (07-11-2020), Wesker_TOT (07-11-2020)

  3. #2
    Senior Member
    สมัครเมื่อ
    Dec 2013
    โพสต์
    2,148
    Thanks
    4,072
    Thanked 0 Times in 0 Posts
    ขอบคุณครับ...

  4. #3
    Senior Member
    สมัครเมื่อ
    Oct 2013
    ที่อยู่
    Thailand
    โพสต์
    1,351
    Thanks
    1,222
    Thanked 0 Times in 0 Posts
    ขอบคุณมาก

  5. #4
    Senior Member
    สมัครเมื่อ
    Jun 2014
    โพสต์
    4,331
    Thanks
    0
    Thanked 0 Times in 0 Posts
    ขอบคุณครับ

  6. #5
    Senior Member
    สมัครเมื่อ
    Jul 2012
    โพสต์
    6,972
    Thanks
    0
    Thanked 0 Times in 0 Posts
    ่ขอบคุณมากจ้า

+ ตอบกลับกระทู้

ข้อมูลกระทู้

Users Browsing this Thread

ในขณะนี้มี 1 ท่านดูกระทู้อยู่. (0 สมาชิกและ 1 ผู้เยี่ยมชม)

     

กฎการโพสต์ข้อความ

  • ท่าน ไม่สามารถ ตั้งกระทู้ใหม่ได้
  • ท่าน ไม่สามารถ ตอบกระทู้ได้
  • ท่าน ไม่สามารถ แนบไฟล์ได้
  • ท่าน ไม่สามารถ แก้ไขข้อความโพสต์ได้
  • BB code สถานะ เปิด
  • Smilies สถานะ เปิด
  • [IMG] สถานะ เปิด
  • HTML สถานะ ปิด