+ ตอบกลับกระทู้
สรุปผลการค้นหา 1 ถึง 5 จากทั้งหมด 5
  1. #1
    Administrators รูปส่วนตัว Duckload.us
    สมัครเมื่อ
    Dec 2010
    โพสต์
    116,862
    Thanks
    7
    Thanked 123,172 Times in 55,209 Posts

    Question [ญี่ปุ่น]-[NETFLIX] Code Geass Lelouch of the Re Surrection (2019) โค้ดกีอัส การคืนชีพของลูลูช-WEB-DL.AC-3.1080p. [rip from Master]-[Soundtrack บรรยายไทย]



    เรื่องย่อ
    ศัตรูหน้าใหม่และพันธมิตรที่คุ้นเคยปรากฏตัวเมื่อราช ินีองค์ใหม่ที่เชิดชูสันติภาพถูกกลุ่มก่อการร้ายลักพ าตัว ส่วนลูลูชต้องฟื้นคืนชีพกลับมาช่วยน้องสาว

    Format : Matroska
    Format version : Version 4
    File size : 4.01 GiB
    Duration : 1 h 52 min
    Overall bit rate : 5 086 kb/s
    Encoded date : UTC 2020-07-06 07:18:07
    Writing application : mkvmerge v48.0.0 ('Fortress Around Your Heart') 64-bit
    Writing library : libebml v1.4.0 + libmatroska v1.6.0

    Video
    ID : 1
    Format : AVC
    Format/Info : Advanced Video Codec
    Format profile : [email protected]
    Format settings : CABAC / 3 Ref Frames
    Format settings, CABAC : Yes
    Format settings, Reference : 3 frames
    Codec ID : V_MPEG4/ISO/AVC
    Duration : 1 h 52 min
    Bit rate : 4 381 kb/s
    Width : 1 920 pixels
    Height : 1 080 pixels
    Display aspect ratio : 16:9
    Frame rate mode : Constant
    Frame rate : 23.976 (24000/1001) FPS
    Color space : YUV
    Chroma subsampling : 4:2:0
    Bit depth : 8 bits
    Scan type : Progressive
    Bits/(Pixel*Frame) : 0.088
    Stream size : 3.45 GiB (86%)
    Language : Japanese
    Default : Yes
    Forced : No

    Audio
    ID : 2
    Format : E-AC-3
    Format/Info : Enhanced AC-3
    Commercial name : Dolby Digital Plus
    Codec ID : A_EAC3
    Duration : 1 h 52 min
    Bit rate mode : Constant
    Bit rate : 640 kb/s
    Channel(s) : 6 channels
    Channel layout : L R C LFE Ls Rs
    Sampling rate : 48.0 kHz
    Frame rate : 31.250 FPS (1536 SPF)
    Compression mode : Lossy
    Stream size : 516 MiB (13%)
    Title : AC-3 Japanese
    Language : Japanese
    Service kind : Complete Main
    Default : No
    Forced : No

    Text #1
    ID : 3
    Format : VobSub
    Muxing mode : zlib
    Codec ID : S_VOBSUB
    Codec ID/Info : Picture based subtitle format used on DVDs
    Duration : 1 h 51 min
    Bit rate : 15.1 kb/s
    Count of elements : 1700
    Stream size : 12.1 MiB (0%)
    Title : Sub Thai 1080p
    Language : Thai
    Default : No
    Forced : No

    Text #2
    ID : 4
    Format : UTF-8
    Codec ID : S_TEXT/UTF8
    Codec ID/Info : UTF-8 Plain Text
    Duration : 1 h 51 min
    Bit rate : 173 b/s
    Count of elements : 1700
    Stream size : 142 KiB (0%)
    Title : Sub Thai SRT
    Language : Thai
    Default : No
    Forced : No

    Text #3
    ID : 5
    Format : PGS
    Muxing mode : zlib
    Codec ID : S_HDMV/PGS
    Codec ID/Info : Picture based subtitle format used on BDs/HD-DVDs
    Duration : 1 h 51 min
    Bit rate : 49.5 kb/s
    Count of elements : 3400
    Stream size : 39.6 MiB (1%)
    Title : Sub Thai PGS
    Language : Thai
    Default : Yes
    Forced : No

    Text #4
    ID : 6
    Format : VobSub
    Muxing mode : zlib
    Codec ID : S_VOBSUB
    Codec ID/Info : Picture based subtitle format used on DVDs
    Duration : 1 h 51 min
    Bit rate : 13.7 kb/s
    Count of elements : 1674
    Stream size : 11.0 MiB (0%)
    Title : Sub English 1080p
    Language : English
    Default : No
    Forced : No

    Text #5
    ID : 7
    Format : UTF-8
    Codec ID : S_TEXT/UTF8
    Codec ID/Info : UTF-8 Plain Text
    Duration : 1 h 51 min
    Bit rate : 71 b/s
    Count of elements : 1674
    Stream size : 58.5 KiB (0%)
    Title : Sub English SRT
    Language : English
    Default : No
    Forced : No

    Text #6
    ID : 8
    Format : PGS
    Muxing mode : zlib
    Codec ID : S_HDMV/PGS
    Codec ID/Info : Picture based subtitle format used on BDs/HD-DVDs
    Duration : 1 h 51 min
    Bit rate : 45.7 kb/s
    Count of elements : 3348
    Stream size : 36.5 MiB (1%)
    Title : Sub English PGS
    Language : English
    Default : No
    Forced : No





    Download: cornfile
    http://cornfile.com/gbs577sx9wae
    Download: mekafile
    http://www.mekafile.com/dl.php?f=Dz0969cbCaiq

  2. #2
    นึกว่าพากย์ไทย

  3. #3
    Junior Member
    สมัครเมื่อ
    Jul 2020
    โพสต์
    1
    Thanks
    0
    Thanked 0 Times in 0 Posts
    ขอ Code Geass ไตรภาค จาก netflix ด้วยค่ะ ขอบคุณค่ะ

  4. #4
    Senior Member
    สมัครเมื่อ
    Jul 2013
    โพสต์
    872
    Thanks
    0
    Thanked 0 Times in 0 Posts
    ขอบคุณครับ

  5. #5
    Senior Member
    สมัครเมื่อ
    Jun 2014
    โพสต์
    4,331
    Thanks
    0
    Thanked 0 Times in 0 Posts
    ขอบคุณครับ

+ ตอบกลับกระทู้

ข้อมูลกระทู้

Users Browsing this Thread

ในขณะนี้มี 1 ท่านดูกระทู้อยู่. (0 สมาชิกและ 1 ผู้เยี่ยมชม)

     

กฎการโพสต์ข้อความ

  • ท่าน ไม่สามารถ ตั้งกระทู้ใหม่ได้
  • ท่าน ไม่สามารถ ตอบกระทู้ได้
  • ท่าน ไม่สามารถ แนบไฟล์ได้
  • ท่าน ไม่สามารถ แก้ไขข้อความโพสต์ได้
  • BB code สถานะ เปิด
  • Smilies สถานะ เปิด
  • [IMG] สถานะ เปิด
  • HTML สถานะ ปิด