+ ตอบกลับกระทู้
สรุปผลการค้นหา 1 ถึง 4 จากทั้งหมด 4
  1. #1
    Administrators รูปส่วนตัว Duckload.us
    สมัครเมื่อ
    Dec 2010
    โพสต์
    116,860
    Thanks
    7
    Thanked 123,169 Times in 55,209 Posts

    Question [ญี่ปุ่น]-Weathering with You ฤดูฝัน ฉันมีเธอ-MiniBD.H.265.1080p-[พากย์ไทย บรรยายไทย]



    เรื่องย่อ เมื่อเด็กหนุ่มมัธยมปลายจากเมืองเล็กๆ ในชนบท โมริชิมะ โฮดากะ ได้ตัดสินใจหนีออกจากบ้านไปใช้ชีวิตในโตเกียวเพียงลำ พัง เขาก็ได้พบกับความผิดปกติบางอย่างในเมืองแห่งนี้ เนื่องด้วยเพราะต้องทำงานเบ๊ในนิตยสารรวมสิ่งลึกลับเ ลี้ยงชีพ เขาจึงเริ่มสังเกตุเห็นถึงสิ่งหนึ่งที่เกิดขึ้นบ่อยจ นคนในเมืองคิดว่าเป็นเรื่องปกติ และนั้นก็เป็นจุดเริ่มต้นที่ทำให้เขาได้พบกับ อามาโนะ ฮินะ สาวน้อยปริศนาที่มีความสามารถในการควบคุมสภาพอากาศ และความลับที่จะเปลี่ยนโฉมหน้าของโลกใบนี้ไปตลอดกาล

    จุดเด่นของเรื่อง

    - ผลงานของ อาจารย์ มาโกโตะ ชิงไก ที่สานต่อความสำเร็จต่อจาก Your name หลับตาฝัน ถึงชื่อเธอ เมื่อปี 2016

    - ภาพยนตร์เรื่องนี้มีการเล่าเรื่องสังคมญี่ปุ่นและตำน านความเชื่อที่เก่าแก่ ผสานกับความทันสมัยใหม่อย่างน่าติดตาม

    Code:
    Format                                   : Matroska
    Format version                           : Version 4
    File size                                : 3.53 GiB
    Duration                                 : 1 h 52 min
    Overall bit rate mode                    : Variable
    Overall bit rate                         : 4 507 kb/s
    Movie name                               : Weathering With You (2019) (1080p BluRay x265 SAMPA)
    Encoded date                             : UTC 2020-07-10 10:01:43
    Writing application                      : mkvmerge v47.0.0 ('Black Flag') 64-bit
    Writing library                          : libebml v1.3.10 + libmatroska v1.5.2
    Cover                                    : Yes
    Attachments                              : Please write me a song.ttf / arlrdbd.ttf / cover.jpg
    
    Video
    ID                                       : 1
    Format                                   : HEVC
    Format/Info                              : High Efficiency Video Coding
    Format profile                           : Main [email protected]@Main
    Codec ID                                 : V_MPEGH/ISO/HEVC
    Duration                                 : 1 h 52 min
    Bit rate                                 : 3 416 kb/s
    Width                                    : 1 920 pixels
    Height                                   : 1 080 pixels
    Display aspect ratio                     : 16:9
    Frame rate mode                          : Constant
    Frame rate                               : 23.976 (24000/1001) FPS
    Color space                              : YUV
    Chroma subsampling                       : 4:2:0
    Bit depth                                : 10 bits
    Bits/(Pixel*Frame)                       : 0.069
    Stream size                              : 2.68 GiB (76%)
    Writing library                          : x265 3.4+6-g73f96ff39:[Windows][GCC 11.0.0][64 bit] 10bit
    Encoding settings                        : cpuid=1111039 / frame-threads=2 / numa-pools=4 / wpp / no-pmode / no-pme / no-psnr / no-ssim / log-level=2 / input-csp=1 / input-res=1920x1080 / interlace=0 / total-frames=161448 / level-idc=0 / high-tier=1 / uhd-bd=0 / ref=4 / no-allow-non-conformance / no-repeat-headers / annexb / no-aud / no-hrd / info / hash=0 / no-temporal-layers / open-gop / min-keyint=23 / keyint=250 / gop-lookahead=0 / bframes=8 / b-adapt=2 / b-pyramid / bframe-bias=0 / rc-lookahead=25 / lookahead-slices=4 / scenecut=40 / hist-scenecut=0 / radl=0 / no-splice / no-intra-refresh / ctu=64 / min-cu-size=8 / no-rect / no-amp / max-tu-size=32 / tu-inter-depth=1 / tu-intra-depth=1 / limit-tu=0 / rdoq-level=2 / dynamic-rd=0.00 / no-ssim-rd / signhide / no-tskip / nr-intra=0 / nr-inter=0 / no-constrained-intra / strong-intra-smoothing / max-merge=3 / limit-refs=3 / limit-modes / me=3 / subme=3 / merange=57 / temporal-mvp / no-frame-dup / no-hme / weightp / no-weightb / no-analyze-src-pics / deblock=0:0 / no-sao / no-sao-non-deblock / rd=4 / selective-sao=0 / no-early-skip / rskip / no-fast-intra / no-tskip-fast / no-cu-lossless / no-b-intra / no-splitrd-skip / rdpenalty=0 / psy-rd=2.00 / psy-rdoq=1.00 / no-rd-refine / no-lossless / cbqpoffs=0 / crqpoffs=0 / rc=crf / crf=17.5 / qcomp=0.60 / qpstep=4 / stats-write=0 / stats-read=0 / ipratio=1.40 / pbratio=1.30 / aq-mode=4 / aq-strength=1.00 / cutree / zone-count=0 / no-strict-cbr / qg-size=32 / no-rc-grain / qpmax=69 / qpmin=0 / no-const-vbv / sar=0 / overscan=0 / videoformat=5 / range=0 / colorprim=1 / transfer=1 / colormatrix=1 / chromaloc=0 / display-window=0 / cll=0,0 / min-luma=0 / max-luma=1023 / log2-max-poc-lsb=8 / vui-timing-info / vui-hrd-info / slices=1 / no-opt-qp-pps / no-opt-ref-list-length-pps / no-multi-pass-opt-rps / scenecut-bias=0.00 / hist-threshold=0.01 / no-opt-cu-delta-qp / no-aq-motion / no-hdr10 / no-hdr10-opt / no-dhdr10-opt / no-idr-recovery-sei / analysis-reuse-level=0 / analysis-save-reuse-level=0 / analysis-load-reuse-level=0 / scale-factor=0 / refine-intra=0 / refine-inter=0 / refine-mv=1 / refine-ctu-distortion=0 / no-limit-sao / ctu-info=0 / no-lowpass-dct / refine-analysis-type=0 / copy-pic=1 / max-ausize-factor=1.0 / no-dynamic-refine / no-single-sei / no-hevc-aq / no-svt / no-field / qp-adaptation-range=1.00 / no-scenecut-aware-qpconformance-window-offsets / right=0 / bottom=0 / decoder-max-rate=0
    Default                                  : Yes
    Forced                                   : No
    Color range                              : Limited
    Color primaries                          : BT.709
    Transfer characteristics                 : BT.709
    Matrix coefficients                      : BT.709
    
    Audio #1
    ID                                       : 2
    Format                                   : E-AC-3
    Format/Info                              : Enhanced AC-3
    Commercial name                          : Dolby Digital Plus
    Codec ID                                 : A_EAC3
    Duration                                 : 1 h 52 min
    Bit rate mode                            : Constant
    Bit rate                                 : 832 kb/s
    Channel(s)                               : 6 channels
    Channel layout                           : L R C LFE Ls Rs
    Sampling rate                            : 48.0 kHz
    Frame rate                               : 31.250 FPS (1536 SPF)
    Compression mode                         : Lossy
    Stream size                              : 668 MiB (18%)
    Title                                    : Japanese (5.1) (E-AC3)
    Language                                 : Japanese
    Service kind                             : Complete Main
    Default                                  : No
    Forced                                   : No
    
    Audio #2
    ID                                       : 9
    Format                                   : MPEG Audio
    Format version                           : Version 1
    Format profile                           : Layer 3
    Format settings                          : Joint stereo / MS Stereo
    Codec ID                                 : A_MPEG/L3
    Codec ID/Hint                            : MP3
    Duration                                 : 1 h 52 min
    Bit rate mode                            : Variable
    Bit rate                                 : 129 kb/s
    Minimum bit rate                         : 32.0 kb/s
    Channel(s)                               : 2 channels
    Sampling rate                            : 44.1 kHz
    Frame rate                               : 38.281 FPS (1152 SPF)
    Compression mode                         : Lossy
    Stream size                              : 104 MiB (3%)
    Writing library                          : LAME3.100
    Encoding settings                        : -m j -V 2 -q 0 -lowpass 18.5 --vbr-new -b 32
    Default                                  : Yes
    Forced                                   : No
    
    Text #1
    ID                                       : 3
    Format                                   : VobSub
    Muxing mode                              : zlib
    Codec ID                                 : S_VOBSUB
    Codec ID/Info                            : Picture based subtitle format used on DVDs
    Duration                                 : 1 h 51 min
    Bit rate                                 : 59.0 kb/s
    Count of elements                        : 7667
    Stream size                              : 46.9 MiB (1%)
    Title                                    : Retail
    Language                                 : English
    Default                                  : No
    Forced                                   : No
    
    Text #2
    ID                                       : 4
    Format                                   : VobSub
    Muxing mode                              : zlib
    Codec ID                                 : S_VOBSUB
    Codec ID/Info                            : Picture based subtitle format used on DVDs
    Duration                                 : 1 h 51 min
    Bit rate                                 : 63.6 kb/s
    Count of elements                        : 7864
    Stream size                              : 50.7 MiB (1%)
    Language                                 : Japanese
    Default                                  : No
    Forced                                   : No
    
    Text #3
    ID                                       : 5
    Format                                   : VobSub
    Muxing mode                              : zlib
    Codec ID                                 : S_VOBSUB
    Codec ID/Info                            : Picture based subtitle format used on DVDs
    Duration                                 : 1 h 50 min
    Bit rate                                 : 36.4 kb/s
    Count of elements                        : 6770
    Stream size                              : 28.9 MiB (1%)
    Language                                 : Chinese
    Default                                  : No
    Forced                                   : No
    
    Text #4
    ID                                       : 6
    Format                                   : ASS
    Codec ID                                 : S_TEXT/ASS
    Codec ID/Info                            : Advanced Sub Station Alpha
    Duration                                 : 1 h 50 min
    Bit rate                                 : 472 b/s
    Count of elements                        : 4346
    Compression mode                         : Lossless
    Stream size                              : 384 KiB (0%)
    Language                                 : English
    Default                                  : No
    Forced                                   : No
    
    Text #5
    ID                                       : 7
    Format                                   : UTF-8
    Codec ID                                 : S_TEXT/UTF8
    Codec ID/Info                            : UTF-8 Plain Text
    Duration                                 : 1 h 44 min
    Bit rate                                 : 151 b/s
    Count of elements                        : 1489
    Stream size                              : 116 KiB (0%)
    Language                                 : Thai
    Default                                  : Yes
    Forced                                   : No
    
    Text #6
    ID                                       : 8
    Format                                   : PGS
    Muxing mode                              : zlib
    Codec ID                                 : S_HDMV/PGS
    Codec ID/Info                            : Picture based subtitle format used on BDs/HD-DVDs
    Duration                                 : 1 h 44 min
    Bit rate                                 : 35.9 kb/s
    Count of elements                        : 2978
    Stream size                              : 27.0 MiB (1%)
    Language                                 : Thai
    Default                                  : No
    Forced                                   : No
    
    Menu
    00:00:00.000                             : en:Chapter 01
    00:03:52.315                             : en:Chapter 02
    00:07:13.433                             : en:Chapter 03
    00:11:51.210                             : en:Chapter 04
    00:17:27.046                             : en:Chapter 05
    00:19:46.351                             : en:Chapter 06
    00:22:25.260                             : en:Chapter 07
    00:26:08.066                             : en:Chapter 08
    00:30:07.972                             : en:Chapter 09
    00:34:27.982                             : en:Chapter 10
    00:38:29.807                             : en:Chapter 11
    00:41:36.243                             : en:Chapter 12
    00:44:05.893                             : en:Chapter 13
    00:47:58.876                             : en:Chapter 14
    00:52:11.461                             : en:Chapter 15
    00:55:55.852                             : en:Chapter 16
    00:58:46.773                             : en:Chapter 17
    01:01:42.532                             : en:Chapter 18
    01:05:18.247                             : en:Chapter 19
    01:08:55.923                             : en:Chapter 20
    01:13:52.928                             : en:Chapter 21
    01:16:58.697                             : en:Chapter 22
    01:19:57.709                             : en:Chapter 23
    01:23:15.949                             : en:Chapter 24
    01:25:48.226                             : en:Chapter 25
    01:28:51.117                             : en:Chapter 26
    01:33:02.868                             : en:Chapter 27
    01:38:33.115                             : en:Chapter 28
    01:43:29.328                             : en:Chapter 29
    01:47:40.829                             : en:Chapter 30
    01:52:12.726                             : en:Chapter 31




    Download: cornfile
    http://cornfile.com/s9tar00tmxgb
    Download: mekafile
    meka รออัพ..*ระบบกำลังประมวลผลไฟล์.ค้าง*

  2. The Following User Says Thank You to Duckload.us For This Useful Post:

    jangska (07-16-2020)

  3. #2
    Junior Member
    สมัครเมื่อ
    Mar 2020
    โพสต์
    1
    Thanks
    0
    Thanked 0 Times in 0 Posts
    ขอบคุณครับ
    แก้ไขครั้งล่าสุดโดย Johny_TH : 07-12-2020 เมื่อ 10:13 AM

  4. #3
    Senior Member
    สมัครเมื่อ
    Jul 2013
    โพสต์
    872
    Thanks
    0
    Thanked 0 Times in 0 Posts
    ขอบคุณครับ

  5. #4
    Senior Member
    สมัครเมื่อ
    Jun 2014
    โพสต์
    4,331
    Thanks
    0
    Thanked 0 Times in 0 Posts
    ขอบคุณครับ

+ ตอบกลับกระทู้

ข้อมูลกระทู้

Users Browsing this Thread

ในขณะนี้มี 1 ท่านดูกระทู้อยู่. (0 สมาชิกและ 1 ผู้เยี่ยมชม)

     

กฎการโพสต์ข้อความ

  • ท่าน ไม่สามารถ ตั้งกระทู้ใหม่ได้
  • ท่าน ไม่สามารถ ตอบกระทู้ได้
  • ท่าน ไม่สามารถ แนบไฟล์ได้
  • ท่าน ไม่สามารถ แก้ไขข้อความโพสต์ได้
  • BB code สถานะ เปิด
  • Smilies สถานะ เปิด
  • [IMG] สถานะ เปิด
  • HTML สถานะ ปิด