+ ตอบกลับกระทู้
สรุปผลการค้นหา 1 ถึง 3 จากทั้งหมด 3
  1. #1
    Administrators รูปส่วนตัว Duckload.us
    สมัครเมื่อ
    Dec 2010
    โพสต์
    116,861
    Thanks
    7
    Thanked 123,170 Times in 55,209 Posts

    Cool [ญี่ปุ่น]-[* ใหม่! Netflix *] Japan Sinks (2020) : ญี่ปุ่นวิปโยค [พากย์ไทย 5.1 + เสียงญี่ปุ่น 5.1] [บรรยายไทย + อังกฤษ] [เสียง + ซับไทย Master From Netflix + ซับ SRT , PGS]-WEB-DL.H.264.1080p.




    Japan Sinks นวนิยายภัยพิบัติเจ้าของรางวัล Mystery Writers of Japan Award ครั้งที่ 27 จากปลายปากกาของ Sakyo Komatsu ที่วางขายในปี 1973 กลายเป็น อนิเมะซีรีส์ ให้ได้ชมกันเร็วๆ นี้บน Netflix หลังจากที่ก่อนหน้านี้เคยถูกหยิบไปดัดเแปลงมาแล้วหลา กหลายรูปแบบไม่ว่าจะฉบับหนังในปี 1973 หรือ ฉบับมังงะในชื่อ Sinking of Japan และถูกหยิบไปดัดแปลงเป็นหนังอีกหนึ่งครั้งในปี 2006

    Japan Sinks 2020 ว่าด้วยเรื่องราวของ ครอบครัวหนึ่งที่พวกเขาจะต้องหาทางเอาชีวิตรอดท่ามกล างความวุ่นวายร้ายแรงที่รุกลามไปทั่วประเทศญี่ปุ่น จากเหตุการณ์แผ่นดินไหวครั้งใหญ่จนก่อให้เกิดเป็นภัย พิบัติมากมายหลายรูปแบบตามมา

    Format : Matroska
    Format version : Version 4
    File size : 766 MiB
    Duration : 25 min 30 s
    Overall bit rate mode : Variable
    Overall bit rate : 4 199 kb/s
    Movie name : Japan.Sinks.2020.S01E01.The.Beginning.of.the.End.1 080p.NF.WEB-DL.DDP5.1.x264_SkiesIT
    Encoded date : UTC 2020-07-09 09:48:23
    Writing application : mkvmerge v48.0.0 ('Fortress Around Your Heart') 64-bit
    Writing library : libebml v1.4.0 + libmatroska v1.6.0

    Video
    ID : 1
    Format : AVC
    Format/Info : Advanced Video Codec
    Format profile : [email protected]
    Format settings : CABAC / 3 Ref Frames
    Format settings, CABAC : Yes
    Format settings, Reference frames : 3 frames
    Codec ID : V_MPEG4/ISO/AVC
    Duration : 25 min 29 s
    Bit rate mode : Variable
    Bit rate : 2 870 kb/s
    Maximum bit rate : 4 305 kb/s
    Width : 1 920 pixels
    Height : 1 080 pixels
    Display aspect ratio : 16:9
    Frame rate mode : Constant
    Frame rate : 23.976 (24000/1001) FPS
    Color space : YUV
    Chroma subsampling : 4:2:0
    Bit depth : 8 bits
    Scan type : Progressive
    Bits/(Pixel*Frame) : 0.058
    Stream size : 515 MiB (67%)
    Title : Japan.Sinks.2020.S01E01.The.Beginning.of.the.End.1 080p.NF.WEB-DL.DDP5.1.x264_SkiesIT
    Writing library : x264 core 148 r2721 6d200cf
    Encoding settings : cabac=1 / ref=3 / deblock=1:0:0 / analyse=0x1:0x111 / me=umh / subme=10 / psy=1 / psy_rd=1.00:0.00 / mixed_ref=1 / me_range=24 / chroma_me=1 / trellis=2 / 8x8dct=0 / cqm=0 / deadzone=21,11 / fast_pskip=1 / chroma_qp_offset=-2 / threads=6 / lookahead_threads=1 / sliced_threads=0 / nr=0 / decimate=1 / interlaced=0 / bluray_compat=0 / stitchable=1 / constrained_intra=0 / bframes=2 / b_pyramid=0 / b_adapt=2 / b_bias=0 / direct=3 / weightb=1 / open_gop=0 / weightp=2 / keyint=250 / keyint_min=23 / scenecut=0 / intra_refresh=0 / rc_lookahead=48 / rc=2pass / mbtree=1 / bitrate=2870 / ratetol=1.0 / qcomp=0.50 / qpmin=6 / qpmax=51 / qpstep=4 / cplxblur=20.0 / qblur=0.5 / vbv_maxrate=4305 / vbv_bufsize=5740 / nal_hrd=vbr / filler=0 / ip_ratio=1.40 / aq=1:1.00
    Default : Yes
    Forced : No

    Audio #1
    ID : 2
    Format : E-AC-3
    Format/Info : Enhanced AC-3
    Commercial name : Dolby Digital Plus
    Codec ID : A_EAC3
    Duration : 25 min 30 s
    Bit rate mode : Constant
    Bit rate : 640 kb/s
    Channel(s) : 6 channels
    Channel layout : L R C LFE Ls Rs
    Sampling rate : 48.0 kHz
    Frame rate : 31.250 FPS (1536 SPF)
    Compression mode : Lossy
    Stream size : 117 MiB (15%)
    Language : Thai
    Service kind : Complete Main
    Default : Yes
    Forced : No

    Audio #2
    ID : 3
    Format : E-AC-3
    Format/Info : Enhanced AC-3
    Commercial name : Dolby Digital Plus
    Codec ID : A_EAC3
    Duration : 25 min 30 s
    Bit rate mode : Constant
    Bit rate : 640 kb/s
    Channel(s) : 6 channels
    Channel layout : L R C LFE Ls Rs
    Sampling rate : 48.0 kHz
    Frame rate : 31.250 FPS (1536 SPF)
    Compression mode : Lossy
    Stream size : 117 MiB (15%)
    Language : Japanese
    Service kind : Complete Main
    Default : No
    Forced : No

    Text #1
    ID : 4
    Format : UTF-8
    Codec ID : S_TEXT/UTF8
    Codec ID/Info : UTF-8 Plain Text
    Duration : 24 min 53 s
    Bit rate : 87 b/s
    Count of elements : 250
    Stream size : 16.0 KiB (0%)
    Title : Thai SRT From Netflix
    Language : Thai
    Default : Yes
    Forced : No

    Text #2
    ID : 5
    Format : UTF-8
    Codec ID : S_TEXT/UTF8
    Codec ID/Info : UTF-8 Plain Text
    Duration : 24 min 53 s
    Bit rate : 37 b/s
    Count of elements : 236
    Stream size : 6.88 KiB (0%)
    Title : English SRT
    Language : English
    Default : No
    Forced : No

    Text #3
    ID : 6
    Format : PGS
    Muxing mode : zlib
    Codec ID : S_HDMV/PGS
    Codec ID/Info : Picture based subtitle format used on BDs/HD-DVDs
    Duration : 24 min 53 s
    Bit rate : 27.7 kb/s
    Count of elements : 500
    Stream size : 4.93 MiB (1%)
    Title : Thai PGS [Angsana]
    Language : Thai
    Default : No
    Forced : No

    Text #4
    ID : 7
    Format : PGS
    Muxing mode : zlib
    Codec ID : S_HDMV/PGS
    Codec ID/Info : Picture based subtitle format used on BDs/HD-DVDs
    Duration : 24 min 53 s
    Bit rate : 27.7 kb/s
    Count of elements : 500
    Stream size : 4.93 MiB (1%)
    Title : Thai PGS [Angsana Yellow]
    Language : Thai
    Default : No
    Forced : No

    Text #5
    ID : 8
    Format : PGS
    Muxing mode : zlib
    Codec ID : S_HDMV/PGS
    Codec ID/Info : Picture based subtitle format used on BDs/HD-DVDs
    Duration : 24 min 53 s
    Bit rate : 27.3 kb/s
    Count of elements : 500
    Stream size : 4.86 MiB (1%)
    Title : Thai PGS [Niramit]
    Language : Thai
    Default : No
    Forced : No

    Text #6
    ID : 9
    Format : PGS
    Muxing mode : zlib
    Codec ID : S_HDMV/PGS
    Codec ID/Info : Picture based subtitle format used on BDs/HD-DVDs
    Duration : 24 min 53 s
    Bit rate : 27.3 kb/s
    Count of elements : 500
    Stream size : 4.86 MiB (1%)
    Title : Thai PGS [Niramit Yellow]
    Language : Thai
    Default : No
    Forced : No

    Text #7
    ID : 10
    Format : PGS
    Muxing mode : zlib
    Codec ID : S_HDMV/PGS
    Codec ID/Info : Picture based subtitle format used on BDs/HD-DVDs
    Duration : 24 min 53 s
    Bit rate : 27.4 kb/s
    Count of elements : 500
    Stream size : 4.88 MiB (1%)
    Title : Thai PGS [Sarabun]
    Language : Thai
    Default : No
    Forced : No

    Text #8
    ID : 11
    Format : PGS
    Muxing mode : zlib
    Codec ID : S_HDMV/PGS
    Codec ID/Info : Picture based subtitle format used on BDs/HD-DVDs
    Duration : 24 min 53 s
    Bit rate : 27.4 kb/s
    Count of elements : 500
    Stream size : 4.88 MiB (1%)
    Title : Thai PGS [Sarabun Yellow]
    Language : Thai
    Default : No
    Forced : No

    Text #9
    ID : 12
    Format : PGS
    Muxing mode : zlib
    Codec ID : S_HDMV/PGS
    Codec ID/Info : Picture based subtitle format used on BDs/HD-DVDs
    Duration : 24 min 53 s
    Bit rate : 24.3 kb/s
    Count of elements : 472
    Stream size : 4.33 MiB (1%)
    Title : English PGS
    Language : English
    Default : No
    Forced : No












    Download: filecondo
    แบบรวม
    http://www.filecondo.com/dl.php?f=26b1aa1JUVfO

    ******************************

    Japan.Sinks.2020.S01E01.The.Beginning.of.the.End.1 080p.NF.WEB-DL.DDP5.1.x264_SkiesIT.mkv
    http://www.filecondo.com/dl.php?f=M3509d1JUbOr

    Japan.Sinks.2020.S01E02.Farewell.Tokyo.1080p.NF.WE B-DL.DDP5.1.x264_SkiesIT.mkv
    http://www.filecondo.com/dl.php?f=Ye4aa21JUbUx

    Japan.Sinks.2020.S01E03.A.New.Hope.1080p.NF.WEB-DL.DDP5.1.x264_SkiesIT.mkv
    http://www.filecondo.com/dl.php?f=C67ad11JUbXS

    Japan.Sinks.2020.S01E04.An.Open.Door.1080p.NF.WEB-DL.DDP5.1.x264_SkiesIT.mkv
    http://www.filecondo.com/dl.php?f=Q1b1691JUc1e

    Japan.Sinks.2020.S01E05.Illusion.1080p.NF.WEB-DL.DDP5.1.x264_SkiesIT.mkv
    http://www.filecondo.com/dl.php?f=R134c11JUc21

    Japan.Sinks.2020.S01E06.An.Oracle.1080p.NF.WEB-DL.DDP5.1.x264_SkiesIT.mkv
    http://www.filecondo.com/dl.php?f=K5ce401JUc2E

    Japan.Sinks.2020.S01E07.The.Dawn.1080p.NF.WEB-DL.DDP5.1.x264_SkiesIT.mkv
    http://www.filecondo.com/dl.php?f=K80a5e1JUc44

    Japan.Sinks.2020.S01E08.Moms.Secret.1080p.NF.WEB-DL.DDP5.1.x264_SkiesIT.mkv
    http://www.filecondo.com/dl.php?f=C8a1d91JUc5L

    Japan.Sinks.2020.S01E09.Japan.Sinks.1080p.NF.WEB-DL.DDP5.1.x264_SkiesIT.mkv
    http://www.filecondo.com/dl.php?f=Sc6a391JUc95

    Japan.Sinks.2020.S01E10.Ressurection.1080p.NF.WEB-DL.DDP5.1.x264_SkiesIT.mkv
    http://www.filecondo.com/dl.php?f=E115e31JUcdz

    Download: cornfile
    Japan.Sinks.2020.S01E01.The.Beginning.of.the.End.1 080p.NF.WEB-DL.DDP5.1.x264_SkiesIT.mkv - 766.0 MB
    Japan.Sinks.2020.S01E02.Farewell.Tokyo.1080p.NF.WE B-DL.DDP5.1.x264_SkiesIT.mkv - 888.5 MB
    Japan.Sinks.2020.S01E03.A.New.Hope.1080p.NF.WEB-DL.DDP5.1.x264_SkiesIT.mkv - 781.7 MB
    Japan.Sinks.2020.S01E04.An.Open.Door.1080p.NF.WEB-DL.DDP5.1.x264_SkiesIT.mkv - 820.8 MB
    Japan.Sinks.2020.S01E05.Illusion.1080p.NF.WEB-DL.DDP5.1.x264_SkiesIT.mkv - 860.2 MB
    Japan.Sinks.2020.S01E06.An.Oracle.1080p.NF.WEB-DL.DDP5.1.x264_SkiesIT.mkv - 715.5 MB
    Japan.Sinks.2020.S01E07.The.Dawn.1080p.NF.WEB-DL.DDP5.1.x264_SkiesIT.mkv - 804.0 MB
    Japan.Sinks.2020.S01E08.Moms.Secret.1080p.NF.WEB-DL.DDP5.1.x264_SkiesIT.mkv - 776.2 MB
    Japan.Sinks.2020.S01E09.Japan.Sinks.1080p.NF.WEB-DL.DDP5.1.x264_SkiesIT.mkv - 893.9 MB
    Japan.Sinks.2020.S01E10.Ressurection.1080p.NF.WEB-DL.DDP5.1.x264_SkiesIT.mkv - 1.2 GB

    Download: mekafile
    Japan.Sinks.2020.S01E01.The.Beginning.of.the.End.1 080p.NF.WEB-DL.DDP5.1.x264_SkiesIT.mkv
    http://www.mekafile.com/dl.php?f=gmc69dcblone

    Japan.Sinks.2020.S01E02.Farewell.Tokyo.1080p.NF.WE B-DL.DDP5.1.x264_SkiesIT.mkv
    http://www.mekafile.com/dl.php?f=Ij7cbfcblou0

    Japan.Sinks.2020.S01E03.A.New.Hope.1080p.NF.WEB-DL.DDP5.1.x264_SkiesIT.mkv
    http://www.mekafile.com/dl.php?f=bl7115cbloAr

    Japan.Sinks.2020.S01E04.An.Open.Door.1080p.NF.WEB-DL.DDP5.1.x264_SkiesIT.mkv
    http://www.mekafile.com/dl.php?f=omaf5ecbloGZ

    Japan.Sinks.2020.S01E05.Illusion.1080p.NF.WEB-DL.DDP5.1.x264_SkiesIT.mkv
    http://www.mekafile.com/dl.php?f=9Vf32ccbloPe

    Japan.Sinks.2020.S01E06.An.Oracle.1080p.NF.WEB-DL.DDP5.1.x264_SkiesIT.mkv
    http://www.mekafile.com/dl.php?f=6902a1cblp2y

    Japan.Sinks.2020.S01E07.The.Dawn.1080p.NF.WEB-DL.DDP5.1.x264_SkiesIT.mkv
    http://www.mekafile.com/dl.php?f=feb496cblpcg

    Japan.Sinks.2020.S01E08.Moms.Secret.1080p.NF.WEB-DL.DDP5.1.x264_SkiesIT.mkv
    http://www.mekafile.com/dl.php?f=U574b7cblplb

    Japan.Sinks.2020.S01E09.Japan.Sinks.1080p.NF.WEB-DL.DDP5.1.x264_SkiesIT.mkv
    http://www.mekafile.com/dl.php?f=Se9180cblpwf

    Japan.Sinks.2020.S01E10.Ressurection.1080p.NF.WEB-DL.DDP5.1.x264_SkiesIT.mkv
    http://www.mekafile.com/dl.php?f=LG4d0ccblpR8

  2. The Following 2 Users Say Thank You to Duckload.us For This Useful Post:

    jangska (07-16-2020), momotarosu (07-12-2020)

  3. #2
    Senior Member
    สมัครเมื่อ
    Jul 2013
    โพสต์
    872
    Thanks
    0
    Thanked 0 Times in 0 Posts
    ขอบคุณคร๊าบ

  4. #3
    Senior Member
    สมัครเมื่อ
    Jul 2013
    โพสต์
    872
    Thanks
    0
    Thanked 0 Times in 0 Posts
    ขอบคุณครับ

+ ตอบกลับกระทู้

ข้อมูลกระทู้

Users Browsing this Thread

ในขณะนี้มี 1 ท่านดูกระทู้อยู่. (0 สมาชิกและ 1 ผู้เยี่ยมชม)

     

กฎการโพสต์ข้อความ

  • ท่าน ไม่สามารถ ตั้งกระทู้ใหม่ได้
  • ท่าน ไม่สามารถ ตอบกระทู้ได้
  • ท่าน ไม่สามารถ แนบไฟล์ได้
  • ท่าน ไม่สามารถ แก้ไขข้อความโพสต์ได้
  • BB code สถานะ เปิด
  • Smilies สถานะ เปิด
  • [IMG] สถานะ เปิด
  • HTML สถานะ ปิด