+ ตอบกลับกระทู้
สรุปผลการค้นหา 1 ถึง 2 จากทั้งหมด 2
  1. #1
    Administrators รูปส่วนตัว Duckload.us
    สมัครเมื่อ
    Dec 2010
    โพสต์
    116,866
    Thanks
    7
    Thanked 123,175 Times in 55,211 Posts

    Thumbs up [จีน]-[ TVB 2015 ] NEW!!! Captain of Destiny - ยอดหญิงทะลุมิติ [TVB-FHD] -HDTV.AC-3.1080i. [From HD-TV]-[พากย์ไทย]





    เนื้อเรื่องย่อ :
    เรื่องราวการผจญภัยข้ามเวลาที่เต็มไปด้วยความตื่นเต้ นของตำรวจสาวที่บังเอิญหลุดเข้าไปโผล่บนเรือโจรสลัดใ นสมัยราชวงศ์ชิง เธอจึงใช้ความรู้สมัยใหม่คอยช่วยเหลือกลุ่มโจรสลัดใน การทำสงครามกับฮ่องเต้ พร้อมกับหาหนทางกลับไปโลกยุคปัจจุบันของเธอให้ได้!

    นำแสดงโดย เกรซ เฉิน, โทนี เฟยหง, เฉิน จ่านเผิง, ฟู่เจียลี่ และนักแสดงมากฝีมืออีกเพียบ!

    Format : Matroska
    Format version : Version 4
    File size : 2.87 GiB
    Duration : 44 min 37 s
    Overall bit rate : 9 222 kb/s
    Encoded date : UTC 2019-07-28 14:39:29
    Writing application : mkvmerge v12.0.0 ('Trust / Lust') 64bit
    Writing library : libebml v1.3.4 + libmatroska v1.4.5

    Video
    ID : 3
    Format : AVC
    Format/Info : Advanced Video Codec
    Format profile : [email protected]
    Format settings : CABAC / 4 Ref Frames
    Format settings, CABAC : Yes
    Format settings, Reference frames : 4 frames
    Format settings, GOP : M=3, N=12
    Codec ID : V_MPEG4/ISO/AVC
    Duration : 44 min 37 s
    Bit rate : 8 243 kb/s
    Width : 1 920 pixels
    Height : 1 080 pixels
    Display aspect ratio : 16:9
    Frame rate mode : Variable
    Frame rate : 30.758 FPS
    Original frame rate : 25.000 FPS
    Color space : YUV
    Chroma subsampling : 4:2:0
    Bit depth : 8 bits
    Scan type : MBAFF
    Scan type, store method : Separated fields
    Scan order : Top Field First
    Bits/(Pixel*Frame) : 0.129
    Stream size : 2.57 GiB (89%)
    Language : Chinese
    Default : Yes
    Forced : No
    Color range : Limited
    Color primaries : BT.709
    Transfer characteristics : BT.709
    Matrix coefficients : BT.709

    Audio #1
    ID : 1
    Format : AC-3
    Format/Info : Audio Coding 3
    Commercial name : Dolby Digital
    Codec ID : A_AC3
    Duration : 44 min 37 s
    Bit rate mode : Constant
    Bit rate : 192 kb/s
    Channel(s) : 2 channels
    Channel layout : L R
    Sampling rate : 48.0 kHz
    Frame rate : 31.250 FPS (1536 SPF)
    Bit depth : 16 bits
    Compression mode : Lossy
    Delay relative to video : -28 ms
    Stream size : 61.3 MiB (2%)
    Title : THAI - Monomaxxx
    Language : Thai
    Service kind : Complete Main
    Default : Yes
    Forced : No

    Audio #2
    ID : 2
    Format : AC-3
    Format/Info : Audio Coding 3
    Commercial name : Dolby Digital
    Codec ID : A_AC3
    Duration : 44 min 37 s
    Bit rate mode : Constant
    Bit rate : 192 kb/s
    Channel(s) : 2 channels
    Channel layout : L R
    Sampling rate : 48.0 kHz
    Frame rate : 31.250 FPS (1536 SPF)
    Bit depth : 16 bits
    Compression mode : Lossy
    Delay relative to video : -28 ms
    Stream size : 61.3 MiB (2%)
    Title : ไทย-TRUE
    Language : Thai
    Service kind : Complete Main
    Default : No
    Forced : No

    Audio #3
    ID : 4
    Format : AC-3
    Format/Info : Audio Coding 3
    Commercial name : Dolby Digital
    Codec ID : A_AC3
    Duration : 44 min 37 s
    Bit rate mode : Constant
    Bit rate : 192 kb/s
    Channel(s) : 2 channels
    Channel layout : L R
    Sampling rate : 48.0 kHz
    Frame rate : 31.250 FPS (1536 SPF)
    Bit depth : 16 bits
    Compression mode : Lossy
    Delay relative to video : -28 ms
    Stream size : 61.3 MiB (2%)
    Language : Chinese
    Service kind : Complete Main
    Default : No
    Forced : No

    Audio #4
    ID : 5
    Format : AC-3
    Format/Info : Audio Coding 3
    Commercial name : Dolby Digital
    Codec ID : A_AC3
    Duration : 44 min 37 s
    Bit rate mode : Constant
    Bit rate : 384 kb/s
    Channel(s) : 6 channels
    Channel layout : L R C LFE Ls Rs
    Sampling rate : 48.0 kHz
    Frame rate : 31.250 FPS (1536 SPF)
    Bit depth : 16 bits
    Compression mode : Lossy
    Delay relative to video : -22 ms
    Stream size : 123 MiB (4%)
    Language : Chinese
    Service kind : Complete Main
    Default : No
    Forced : No

    Text #1
    ID : 6
    Format : DVB Subtitle
    Muxing mode : zlib
    Codec ID : S_DVBSUB
    Codec ID/Info : Picture based subtitle format used on DVBs
    Duration : 44 min 5 s
    Bit rate : 5 293 b/s
    Count of elements : 1412
    Stream size : 1.67 MiB (0%)
    Language : Chinese
    Default : No
    Forced : No

    Text #2
    ID : 7
    Format : DVB Subtitle
    Muxing mode : zlib
    Codec ID : S_DVBSUB
    Codec ID/Info : Picture based subtitle format used on DVBs
    Duration : 44 min 4 s
    Bit rate : 4 082 b/s
    Count of elements : 1348
    Stream size : 1.29 MiB (0%)
    Language : English
    Default : No
    Forced : No

    Text #3
    ID : 8
    Format : DVB Subtitle
    Muxing mode : zlib
    Codec ID : S_DVBSUB
    Codec ID/Info : Picture based subtitle format used on DVBs
    Duration : 44 min 5 s
    Bit rate : 5 158 b/s
    Count of elements : 1412
    Stream size : 1.63 MiB (0%)
    Default : No
    Forced : No







    Download: filecondo
    1
    http://www.filecondo.com/dl.php?f=B61c2b1JVz4S
    2
    http://www.filecondo.com/dl.php?f=k7d1681JVz5S
    3
    http://www.filecondo.com/dl.php?f=zf60b61JVz7O
    4
    http://www.filecondo.com/dl.php?f=84f42c1JVz9L
    5
    http://www.filecondo.com/dl.php?f=v9cf4c1JVzbE
    6
    http://www.filecondo.com/dl.php?f=1514991JVzcw
    7
    http://www.filecondo.com/dl.php?f=Q848fe1JVzey
    8
    http://www.filecondo.com/dl.php?f=026ccc1JVzgo
    9
    http://www.filecondo.com/dl.php?f=ga676c1JVzhm
    10
    http://www.filecondo.com/dl.php?f=bddba31JVzik
    11
    http://www.filecondo.com/dl.php?f=zaa1211JVzjj
    12
    http://www.filecondo.com/dl.php?f=Kfcd551JVzkh
    13
    http://www.filecondo.com/dl.php?f=a6cc521JVzmd
    14
    http://www.filecondo.com/dl.php?f=e452b21JVzna
    15
    http://www.filecondo.com/dl.php?f=O17e0a1JVzo9
    16
    http://www.filecondo.com/dl.php?f=y2ed581JVzpa
    17
    http://www.filecondo.com/dl.php?f=Ef08611JVzq4
    18
    http://www.filecondo.com/dl.php?f=v2898f1JVzr3
    19
    http://www.filecondo.com/dl.php?f=Gab8131JVzs0
    20
    http://www.filecondo.com/dl.php?f=3d846c1JVzuV
    21
    http://www.filecondo.com/dl.php?f=Z9dcb91JVzwV
    22
    http://www.filecondo.com/dl.php?f=sf98831JVzyO
    23
    http://www.filecondo.com/dl.php?f=ndd0c11JVzAJ
    24
    http://www.filecondo.com/dl.php?f=w76e601JVzCF
    25
    http://www.filecondo.com/dl.php?f=Eedbd91JVzEB
    26
    http://www.filecondo.com/dl.php?f=p157081JVzGy
    27
    http://www.filecondo.com/dl.php?f=Vdcffe1JVzHu
    28
    http://www.filecondo.com/dl.php?f=i1acdd1JVzJr
    29
    http://www.filecondo.com/dl.php?f=Xbdec71JVzLr
    30
    http://www.filecondo.com/dl.php?f=t82eaa1JVzNj
    31
    http://www.filecondo.com/dl.php?f=K19ede1JVzOf
    32
    http://www.filecondo.com/dl.php?f=jb870d1JVzPf

    Download: cornfile
    (04) Captain of Destiny_2015 mtzs.mkv - 2.8 GB
    (08) Captain of Destiny_2015 mtzs.mkv - 2.8 GB
    (10) Captain of Destiny_2015 mtzs.mkv - 2.8 GB
    (16) Captain of Destiny_2015 mtzs.mkv - 2.8 GB
    (18) Captain of Destiny_2015 mtzs.mkv - 2.8 GB
    (19) Captain of Destiny_2015 mtzs.mkv - 2.8 GB
    (21) Captain of Destiny_2015 mtzs.mkv - 2.8 GB
    (25) Captain of Destiny_2015 mtzs.mkv - 2.8 GB
    (31) Captain of Destiny_2015 mtzs.mkv - 2.8 GB
    (32) Captain of Destiny_2015 end mtzs.mkv - 2.8 GB
    (01) Captain of Destiny_2015 mtzs.mkv - 2.9 GB
    (02) Captain of Destiny_2015 mtzs.mkv - 2.9 GB
    (03) Captain of Destiny_2015 mtzs.mkv - 2.9 GB
    (04) Captain of Destiny_2015 mtzs.mkv - 2.8 GB
    (05) Captain of Destiny_2015 mtzs.mkv - 2.9 GB
    (06) Captain of Destiny_2015 mtzs.mkv - 2.8 GB
    (07) Captain of Destiny_2015 mtzs.mkv - 2.9 GB
    (08) Captain of Destiny_2015 mtzs.mkv - 2.8 GB
    (08) Captain of Destiny_2015 mtzs.mkv - 2.8 GB
    (09) Captain of Destiny_2015 mtzs.mkv - 2.9 GB
    (10) Captain of Destiny_2015 mtzs.mkv - 2.8 GB
    (11) Captain of Destiny_2015 mtzs.mkv - 2.9 GB
    (12) Captain of Destiny_2015 mtzs.mkv - 2.9 GB
    (13) Captain of Destiny_2015 mtzs.mkv - 2.9 GB
    (14) Captain of Destiny_2015 mtzs.mkv - 2.9 GB
    (15) Captain of Destiny_2015 mtzs.mkv - 2.9 GB
    (16) Captain of Destiny_2015 mtzs.mkv - 2.8 GB
    (17) Captain of Destiny_2015 mtzs.mkv - 2.8 GB
    (18) Captain of Destiny_2015 mtzs.mkv - 2.8 GB
    (19) Captain of Destiny_2015 mtzs.mkv - 2.8 GB
    (20) Captain of Destiny_2015 mtzs.mkv - 2.8 GB
    (21) Captain of Destiny_2015 mtzs.mkv - 2.8 GB
    (22) Captain of Destiny_2015 mtzs.mkv - 2.9 GB
    (23) Captain of Destiny_2015 mtzs.mkv - 2.9 GB
    (24) Captain of Destiny_2015 mtzs.mkv - 2.9 GB
    (25) Captain of Destiny_2015 mtzs.mkv - 2.8 GB
    (26) Captain of Destiny_2015 mtzs.mkv - 2.9 GB
    (27) Captain of Destiny_2015 mtzs.mkv - 2.9 GB
    (28) Captain of Destiny_2015 mtzs.mkv - 2.9 GB
    (29) Captain of Destiny_2015 mtzs.mkv - 2.9 GB
    (30) Captain of Destiny_2015 mtzs.mkv - 2.9 GB
    (31) Captain of Destiny_2015 mtzs.mkv - 2.8 GB
    (32) Captain of Destiny_2015 end mtzs.mkv - 2.8 GB

  2. The Following User Says Thank You to Duckload.us For This Useful Post:

    noi54 (07-16-2020)

  3. #2
    Senior Member
    สมัครเมื่อ
    May 2012
    โพสต์
    324
    Thanks
    0
    Thanked 0 Times in 0 Posts
    ขอบคุณครับ

+ ตอบกลับกระทู้

ข้อมูลกระทู้

Users Browsing this Thread

ในขณะนี้มี 1 ท่านดูกระทู้อยู่. (0 สมาชิกและ 1 ผู้เยี่ยมชม)

     

กฎการโพสต์ข้อความ

  • ท่าน ไม่สามารถ ตั้งกระทู้ใหม่ได้
  • ท่าน ไม่สามารถ ตอบกระทู้ได้
  • ท่าน ไม่สามารถ แนบไฟล์ได้
  • ท่าน ไม่สามารถ แก้ไขข้อความโพสต์ได้
  • BB code สถานะ เปิด
  • Smilies สถานะ เปิด
  • [IMG] สถานะ เปิด
  • HTML สถานะ ปิด