+ ตอบกลับกระทู้
สรุปผลการค้นหา 1 ถึง 2 จากทั้งหมด 2
  1. #1
    Administrators รูปส่วนตัว Duckload.us
    สมัครเมื่อ
    Dec 2010
    โพสต์
    146,397
    Thanks
    7
    Thanked 153,477 Times in 66,855 Posts

    Lightbulb [ฝรั่ง]-[* NETFLIX ตามคำขอ *] The End Of The Fucking World Season 1-2 (2017-2019) : โลกมันห่วย ช่วยไม่ได้ [เสียงไทย 5.1 + เสียงอังกฤษ 5.1] [บรรยายไทย + อังกฤษ] [เสียง + ซับไทย Master From Netflix + ซับ SRT , PGS]-WEB-DL.H.264.1080p.




    The End of the F***ing World : โลกมันห่วย ช่วยไม่ได้ — นี่ไม่ใช่ซีรี่ส์วัยรุ่นใสๆ แต่มันคือ ซี่รี่ส์วัยรุ่นดราม่าตลกร้ายแบบฉบับเพี้ยน ดัดแปลงจากหนังสือขายดีในชื่อเดียวกัน เรื่องราวของ “เจมส์” หนุ่มวัยรุ่นที่รู้ว่าตัวเองโรคจิตมาตั้งแต่เด็ก ชอบทำอะไรแปลกๆ ชอบความรุนแรง ชอบฆ่าสัตว์ จนวันหนึ่งวางแผนที่จะฆ่าคนจริงๆ เมื่อได้พบกับหญิงวัยรุ่น “อลิสซา” สาวที่ชอบทำตัวขวางโลกในไฮสคูล จึงคิดว่าเจอคนที่ใช่แล้ว เลยแกล้งทำเป็นรักแต่หลอกเพื่อที่จะไปฆ่า ในขณะที่อลิสซาเองก็ต้องการจะไปจากเมืองบ้าๆ แห่งนี้ ทั้งคู่จึงร่วมเดินทางไปด้วยกันเพื่อค้นหาตัวตนของกั นและกัน จนเกิดเป็นความรักแบบฉบับเพี้ยน แล้วเจมส์จะฆ่าเธอตามที่ตั้งใจไว้หรือไม่ !?เจมส์หนุ่มน้อยวัย 17 ปีผู้เบื่อหน่ายเต็มทีกับการฆ่าสัตว์กำลังหมกมุ่นวาง แผนฆ่าคนครั้งแรก แต่เมื่อเจอสาวซ่าอย่างอลิสซาที่โรงเรียน เขากลับตั้งตัวไม่ติด

    Format : Matroska
    Format version : Version 4
    File size : 1.44 GiB
    Duration : 25 min 4 s
    Overall bit rate mode : Variable
    Overall bit rate : 8 245 kb/s
    Movie name : The.End.of.the.Fucking.World.S02E01.1080p.NF.WEB-DL.DDP5.1.x264_SkiesIT
    Encoded date : UTC 2020-07-15 05:20:48
    Writing application : mkvmerge v48.0.0 ('Fortress Around Your Heart') 64-bit
    Writing library : libebml v1.4.0 + libmatroska v1.6.0

    Video
    ID : 1
    Format : AVC
    Format/Info : Advanced Video Codec
    Format profile : High@L4
    Format settings : CABAC / 4 Ref Frames
    Format settings, CABAC : Yes
    Format settings, Reference frames : 4 frames
    Codec ID : V_MPEG4/ISO/AVC
    Duration : 25 min 3 s
    Bit rate mode : Variable
    Bit rate : 6 786 kb/s
    Maximum bit rate : 20.0 Mb/s
    Width : 1 920 pixels
    Height : 1 080 pixels
    Display aspect ratio : 16:9
    Frame rate mode : Constant
    Frame rate : 25.000 FPS
    Color space : YUV
    Chroma subsampling : 4:2:0
    Bit depth : 8 bits
    Scan type : Progressive
    Bits/(Pixel*Frame) : 0.131
    Stream size : 1.19 GiB (82%)
    Title : The.End.of.the.Fucking.World.S02E01.1080p.NF.WEB-DL.DDP5.1.x264_SkiesIT
    Writing library : x264 core 148 r2715 7e75228
    Encoding settings : cabac=1 / ref=4 / deblock=1:0:0 / analyse=0x3:0x111 / me=umh / subme=10 / psy=1 / psy_rd=1.00:0.00 / mixed_ref=1 / me_range=120 / chroma_me=1 / trellis=2 / 8x8dct=1 / cqm=0 / deadzone=21,11 / fast_pskip=1 / chroma_qp_offset=-2 / threads=6 / lookahead_threads=1 / sliced_threads=0 / nr=0 / decimate=1 / interlaced=0 / bluray_compat=0 / stitchable=1 / constrained_intra=0 / bframes=16 / b_pyramid=2 / b_adapt=2 / b_bias=0 / direct=3 / weightb=1 / open_gop=0 / weightp=2 / keyint=250 / keyint_min=126 / scenecut=0 / intra_refresh=0 / rc_lookahead=250 / rc=crf / mbtree=1 / crf=16.0 / qcomp=0.50 / qpmin=6 / qpmax=51 / qpstep=4 / vbv_maxrate=20000 / vbv_bufsize=25000 / crf_max=0.0 / nal_hrd=vbr / filler=0 / ip_ratio=1.40 / aq=1:0.80
    Language : English
    Default : Yes
    Forced : No

    Audio #1
    ID : 2
    Format : E-AC-3 JOC
    Format/Info : Enhanced AC-3 with Joint Object Coding
    Commercial name : Dolby Digital Plus with Dolby Atmos
    Codec ID : A_EAC3
    Duration : 25 min 4 s
    Bit rate mode : Constant
    Bit rate : 768 kb/s
    Channel(s) : 6 channels
    Channel layout : L R C LFE Ls Rs
    Sampling rate : 48.0 kHz
    Frame rate : 31.250 FPS (1536 SPF)
    Compression mode : Lossy
    Stream size : 138 MiB (9%)
    Title : English
    Language : English
    Service kind : Complete Main
    Default : No
    Forced : No
    Complexity index : 16
    Number of dynamic objects : 15
    Bed channel count : 1 channel
    Bed channel configuration : LFE

    Audio #2
    ID : 3
    Format : E-AC-3
    Format/Info : Enhanced AC-3
    Commercial name : Dolby Digital Plus
    Codec ID : A_EAC3
    Duration : 25 min 4 s
    Bit rate mode : Constant
    Bit rate : 640 kb/s
    Channel(s) : 6 channels
    Channel layout : L R C LFE Ls Rs
    Sampling rate : 48.0 kHz
    Frame rate : 31.250 FPS (1536 SPF)
    Compression mode : Lossy
    Stream size : 115 MiB (8%)
    Title : Thai
    Language : Thai
    Service kind : Complete Main
    Default : Yes
    Forced : No

    Text #1
    ID : 4
    Format : UTF-8
    Codec ID : S_TEXT/UTF8
    Codec ID/Info : UTF-8 Plain Text
    Duration : 24 min 15 s
    Bit rate : 77 b/s
    Count of elements : 239
    Stream size : 13.8 KiB (0%)
    Title : Thai SRT From Netflix
    Language : Thai
    Default : Yes
    Forced : No

    Text #2
    ID : 5
    Format : UTF-8
    Codec ID : S_TEXT/UTF8
    Codec ID/Info : UTF-8 Plain Text
    Duration : 24 min 15 s
    Bit rate : 2 b/s
    Count of elements : 8
    Stream size : 455 Bytes (0%)
    Title : Thai SRT From Netflix Forced
    Language : Thai
    Default : No
    Forced : No

    Text #3
    ID : 6
    Format : PGS
    Muxing mode : zlib
    Codec ID : S_HDMV/PGS
    Codec ID/Info : Picture based subtitle format used on BDs/HD-DVDs
    Duration : 24 min 14 s
    Bit rate : 23.6 kb/s
    Count of elements : 478
    Stream size : 4.09 MiB (0%)
    Title : Thai PGS [Angsana]
    Language : Thai
    Default : No
    Forced : No

    Text #4
    ID : 7
    Format : PGS
    Muxing mode : zlib
    Codec ID : S_HDMV/PGS
    Codec ID/Info : Picture based subtitle format used on BDs/HD-DVDs
    Duration : 24 min 14 s
    Bit rate : 23.6 kb/s
    Count of elements : 478
    Stream size : 4.09 MiB (0%)
    Title : Thai PGS [Angsana Yellow]
    Language : Thai
    Default : No
    Forced : No

    Text #5
    ID : 8
    Format : PGS
    Muxing mode : zlib
    Codec ID : S_HDMV/PGS
    Codec ID/Info : Picture based subtitle format used on BDs/HD-DVDs
    Duration : 24 min 14 s
    Bit rate : 23.3 kb/s
    Count of elements : 478
    Stream size : 4.03 MiB (0%)
    Title : Thai PGS [Sarabun]
    Language : Thai
    Default : No
    Forced : No

    Text #6
    ID : 9
    Format : PGS
    Muxing mode : zlib
    Codec ID : S_HDMV/PGS
    Codec ID/Info : Picture based subtitle format used on BDs/HD-DVDs
    Duration : 24 min 14 s
    Bit rate : 23.3 kb/s
    Count of elements : 478
    Stream size : 4.03 MiB (0%)
    Title : Thai PGS [Sarabun Yellow]
    Language : Thai
    Default : No
    Forced : No

    Text #7
    ID : 10
    Format : PGS
    Muxing mode : zlib
    Codec ID : S_HDMV/PGS
    Codec ID/Info : Picture based subtitle format used on BDs/HD-DVDs
    Duration : 24 min 2 s
    Bit rate : 31.8 kb/s
    Count of elements : 692
    Stream size : 5.47 MiB (0%)
    Title : English PGS
    Language : English
    Default : No
    Forced : No








    The.End.of.the.Fucking.World.S02
    1
    http://www.filecondo.com/dl.php?f=j4901c1JW8eS
    2
    http://www.filecondo.com/dl.php?f=f45e6c1JW8fO
    3
    http://www.filecondo.com/dl.php?f=z42d9e1JW8gO
    4
    http://www.filecondo.com/dl.php?f=T96e551JW8hI
    5
    http://www.filecondo.com/dl.php?f=D8c9441JW8iJ
    6
    http://www.filecondo.com/dl.php?f=E16d331JW8jG
    7
    http://www.filecondo.com/dl.php?f=Z192e71JW8kG
    8
    http://www.filecondo.com/dl.php?f=0889d51JW8lC

    The.End.of.the.Fucking.World.S01
    1
    http://www.filecondo.com/dl.php?f=n99ed91JW874
    2
    http://www.filecondo.com/dl.php?f=Vfae4c1JW886
    3
    http://www.filecondo.com/dl.php?f=rb41971JW896
    4
    http://www.filecondo.com/dl.php?f=Qe233c1JW89X
    5
    http://www.filecondo.com/dl.php?f=74e7da1JW8aX
    6
    http://www.filecondo.com/dl.php?f=v8ade21JW8c0
    7
    http://www.filecondo.com/dl.php?f=139acb1JW8cT
    8
    http://www.filecondo.com/dl.php?f=d37ed91JW8dQ

  2. #2
    Senior Member
    สมัครเมื่อ
    May 2012
    โพสต์
    1,775
    Thanks
    0
    Thanked 0 Times in 0 Posts
    ขอบคุณครับ

+ ตอบกลับกระทู้

ข้อมูลกระทู้

Users Browsing this Thread

ในขณะนี้มี 1 ท่านดูกระทู้อยู่. (0 สมาชิกและ 1 ผู้เยี่ยมชม)

     

กฎการโพสต์ข้อความ

  • ท่าน ไม่สามารถ ตั้งกระทู้ใหม่ได้
  • ท่าน ไม่สามารถ ตอบกระทู้ได้
  • ท่าน ไม่สามารถ แนบไฟล์ได้
  • ท่าน ไม่สามารถ แก้ไขข้อความโพสต์ได้
  • BB code สถานะ เปิด
  • Smilies สถานะ เปิด
  • [IMG] สถานะ เปิด
  • HTML สถานะ ปิด