+ ตอบกลับกระทู้
สรุปผลการค้นหา 1 ถึง 1 จากทั้งหมด 1
  1. #1
    Administrators รูปส่วนตัว Duckload.us
    สมัครเมื่อ
    Dec 2010
    โพสต์
    116,869
    Thanks
    7
    Thanked 123,180 Times in 55,214 Posts

    Question [ฝรั่ง] • [* ใหม่ พากย์ไทย *] • Swiss Army Man (2016) คู่เพี้ยนผจญภัย • [เสียงไทย AC-3 + อังกฤษ DTS 5.1] • [บรรยายไทย + อังกฤษ + PGS คมชัด] • [From Blu-Ray Master 1080p]



    Swiss Army Man เป็นหนังที่มีพล็อตประหลาดทีเดียวครับ เริ่มกันง่ายๆ เลยคือมันเริ่มต้นที่แฮงค์ (พอล ดาโน่) ชายติดเกาะคนหนึ่งที่รู้สึกสิ้นหวังกับการมีชีวิตอยู ่ต่อ ที่แม้เขาเคยได้พยายามส่งข้อความขอความช่วยเหลือโดยล อยไปกับทะเล แต่เมื่อถึงจุดหนึ่งแฮงค์ก็ตระหนักได้ว่าทางออกที่จะ พาตัวเขาให้หลุดรอดจากเกาะแห่งนี้ได้นั้นแทบจะเป็นศู นย์ เห็นจะหมดแล้วซึ่งทางออก แฮงค์ตัดสินใจจบชีวิตตัวเองลงด้วยการแขวนคอ แต่ในขณะที่เขากำลังจะขาดลมหายใจตายนั้นเองที่บังเอิ ญพอดีว่ามีร่างของชายปริศนาลอยมาเกยตื้นที่ชายฝั่ง ด้วยความดีใจว่าในที่สุดก็มีใครไม่รู้ลอยมาติดเกาะเป ็นเพื่อนกัน แฮงค์วิ่งตรงไปยังร่างของชายคนนั้น พลิกเขาขึ้นด้วยหวังจะช่วยเหลือแต่กลับต้องพบว่าร่าง นั้นคือศพที่ไม่มีชีวิต (ตัวศพรับบทโดยแดเนี่ยล แรดคลิฟฟ์!!)

    Format : Matroska
    Format version : Version 4
    File size : 2.56 GiB
    Duration : 1 h 37 min
    Overall bit rate : 3 766 kb/s
    Movie name : จัดทำโดย BeerT (เบียร์)
    Encoded date : UTC 2020-07-26 09:04:55
    Writing application : mkvmerge v47.0.0 ('Black Flag') 64-bit
    Writing library : libebml v1.3.10 + libmatroska v1.5.2

    Video
    ID : 1
    Format : AVC
    Format/Info : Advanced Video Codec
    Format profile : [email protected]
    Format settings : CABAC / 5 Ref Frames
    Format settings, CABAC : Yes
    Format settings, Reference fra : 5 frames
    Codec ID : V_MPEG4/ISO/AVC
    Duration : 1 h 37 min
    Bit rate : 2 850 kb/s
    Width : 1 920 pixels
    Height : 800 pixels
    Display aspect ratio : 2.40:1
    Frame rate mode : Constant
    Frame rate : 23.976 (24000/1001) FPS
    Color space : YUV
    Chroma subsampling : 4:2:0
    Bit depth : 8 bits
    Scan type : Progressive
    Bits/(Pixel*Frame) : 0.077
    Stream size : 1.94 GiB (76%)
    Title : จัดทำโดย BeerT (เบียร์)
    Writing library : x264 core 148 r2638 7599210
    Encoding settings : cabac=1 / ref=5 / deblock=1:-1:-1 / analyse=0x3:0x133 / me=umh / subme=7 / psy=1 / psy_rd=1.00:0.00 / mixed_ref=1 / me_range=30 / chroma_me=1 / trellis=1 / 8x8dct=1 / cqm=2 / deadzone=21,11 / fast_pskip=0 / chroma_qp_offset=-2 / threads=12 / lookahead_threads=3 / sliced_threads=0 / slices=4 / nr=0 / decimate=1 / interlaced=0 / bluray_compat=0 / constrained_intra=0 / bframes=5 / b_pyramid=2 / b_adapt=2 / b_bias=0 / direct=3 / weightb=1 / open_gop=0 / weightp=2 / keyint=240 / keyint_min=23 / scenecut=40 / intra_refresh=0 / rc_lookahead=50 / rc=2pass / mbtree=1 / bitrate=2850 / ratetol=1.0 / qcomp=0.60 / qpmin=1 / qpmax=69 / qpstep=4 / cplxblur=20.0 / qblur=0.5 / vbv_maxrate=62500 / vbv_bufsize=78125 / nal_hrd=none / filler=0 / ip_ratio=1.40 / aq=1:1.00
    Language : English
    Default : Yes
    Forced : No

    Audio #1
    ID : 2
    Format : AC-3
    Format/Info : Audio Coding 3
    Commercial name : Dolby Digital
    Codec ID : A_AC3
    Duration : 1 h 37 min
    Bit rate mode : Constant
    Bit rate : 128 kb/s
    Channel(s) : 2 channels
    Channel layout : L R
    Sampling rate : 48.0 kHz
    Frame rate : 31.250 FPS (1536 SPF)
    Compression mode : Lossy
    Delay relative to video : 8 ms
    Stream size : 88.9 MiB (3%)
    Title : Thai AC-3
    Language : Thai
    Service kind : Complete Main
    Default : Yes
    Forced : No

    Audio #2
    ID : 3
    Format : DTS
    Format/Info : Digital Theater Systems
    Codec ID : A_DTS
    Duration : 1 h 37 min
    Bit rate mode : Constant
    Bit rate : 755 kb/s
    Channel(s) : 6 channels
    Channel layout : C L R Ls Rs LFE
    Sampling rate : 48.0 kHz
    Frame rate : 93.750 FPS (512 SPF)
    Bit depth : 24 bits
    Compression mode : Lossy
    Stream size : 525 MiB (20%)
    Title : Eng DTS 5.1
    Language : English
    Default : No
    Forced : No

    Text #1
    ID : 4
    Format : PGS
    Muxing mode : zlib
    Codec ID : S_HDMV/PGS
    Codec ID/Info : Picture based subtitle format used on BDs/HD-DVDs
    Duration : 1 h 31 min
    Bit rate : 36.6 kb/s
    Count of elements : 1986
    Stream size : 23.8 MiB (1%)
    Title : Thai PGS
    Language : Thai
    Default : Yes
    Forced : No

    Text #2
    ID : 5
    Format : PGS
    Muxing mode : zlib
    Codec ID : S_HDMV/PGS
    Codec ID/Info : Picture based subtitle format used on BDs/HD-DVDs
    Duration : 1 h 31 min
    Bit rate : 36.6 kb/s
    Count of elements : 1986
    Stream size : 23.8 MiB (1%)
    Title : Thai PGS Out
    Language : Thai
    Default : No
    Forced : No

    Text #3
    ID : 6
    Format : UTF-8
    Codec ID : S_TEXT/UTF8
    Codec ID/Info : UTF-8 Plain Text
    Duration : 1 h 31 min
    Bit rate : 107 b/s
    Count of elements : 993
    Stream size : 71.7 KiB (0%)
    Title : Thai Srt
    Language : Thai
    Default : No
    Forced : No

    Text #4
    ID : 7
    Format : UTF-8
    Codec ID : S_TEXT/UTF8
    Codec ID/Info : UTF-8 Plain Text
    Duration : 1 h 33 min
    Bit rate : 51 b/s
    Count of elements : 1166
    Stream size : 35.6 KiB (0%)
    Title : Eng Srt
    Language : English
    Default : No
    Forced : No

    Menu
    00:00:00.000 : en:Chapter 01
    00:08:47.902 : en:Chapter 02
    00:13:14.335 : en:Chapter 03
    00:17:42.227 : en:Chapter 04
    00:25:11.593 : en:Chapter 05
    00:32:46.255 : en:Chapter 06
    00:37:17.068 : en:Chapter 07
    00:44:39.259 : en:Chapter 08
    00:51:44.101 : en:Chapter 09
    00:57:57.223 : en:Chapter 10
    01:03:19.337 : en:Chapter 11
    01:06:17.139 : en:Chapter 12
    01:10:05.534 : en:Chapter 13
    01:16:40.679 : en:Chapter 14
    01:22:10.091 : en:Chapter 15
    01:27:31.788 : en:Chapter 16

















    Download: cornfile
    http://cornfile.com/5js2qdee06wg
    Download: mekafile
    meka รออัพ..*ระบบกำลังประมวลผลไฟล์.ค้าง*

  2. The Following 3 Users Say Thank You to Duckload.us For This Useful Post:

    apichartdear (07-31-2020), bigbang06 (07-30-2020), noi54 (08-02-2020)

+ ตอบกลับกระทู้

ข้อมูลกระทู้

Users Browsing this Thread

ในขณะนี้มี 1 ท่านดูกระทู้อยู่. (0 สมาชิกและ 1 ผู้เยี่ยมชม)

     

กฎการโพสต์ข้อความ

  • ท่าน ไม่สามารถ ตั้งกระทู้ใหม่ได้
  • ท่าน ไม่สามารถ ตอบกระทู้ได้
  • ท่าน ไม่สามารถ แนบไฟล์ได้
  • ท่าน ไม่สามารถ แก้ไขข้อความโพสต์ได้
  • BB code สถานะ เปิด
  • Smilies สถานะ เปิด
  • [IMG] สถานะ เปิด
  • HTML สถานะ ปิด