+ ตอบกลับกระทู้
สรุปผลการค้นหา 1 ถึง 1 จากทั้งหมด 1
  1. #1
    Administrators รูปส่วนตัว Duckload.us
    สมัครเมื่อ
    Dec 2010
    โพสต์
    116,869
    Thanks
    7
    Thanked 123,180 Times in 55,214 Posts

    Question [เกาหลี]- [V1] Train to Busan 2 (2020) ฝ่านรกซอมบี้คลั่ง 2-Encode.AC-3.SD 480p.-[พากย์ไทยโรง]



    เมื่อเชื้อไวรัส ‘ซอมบี้’ มิได้สิ้นสุดที่รถไฟ KTX หรือเมืองปูซานเท่านั้น แต่มันแพร่ระบาดจนเกินการควบคุมได้ จนทำให้ทั้งผืนคาบสมุทรเกาหลีเต็มไปด้วยซอมบี้โหยเลื อด ซ่อนตัวตามมุมหลืบทุกซอกทุกเมือง ออกล่าเหยื่อทั้งกลางวันกลางคืน เพียงว่ากลางคืนพวกมันมองไม่เห็น ต้องอาศัยเสียงหรือแสงไฟ จะล่อให้กรูกันรุมขย้ำเป้าหมายอย่างบ้าคลั่ง ผู้คนที่ยังเหลือรอด ก็พากันลี้ภัยไปประเทศเพื่อนบ้าน ทิ้งให้เกาหลีกลายสภาพเป็นดินแดนดิสโทเปียมาถึง 4 ปี

    Format : Matroska
    Format version : Version 4
    File size : 994 MiB
    Duration : 1 h 51 min
    Overall bit rate mode : Variable
    Overall bit rate : 1 248 kb/s
    Encoded date : UTC 2020-07-28 19:54:57
    Writing application : mkvmerge v47.0.0 ('Black Flag') 64-bit
    Writing library : libebml v1.3.10 + libmatroska v1.5.2

    Video
    ID : 1
    Format : AVC
    Format/Info : Advanced Video Codec
    Format profile : [email protected]
    Format settings : CABAC / 2 Ref Frames
    Format settings, CABAC : Yes
    Format settings, Reference frames : 2 frames
    Codec ID : V_MPEG4/ISO/AVC
    Duration : 1 h 51 min
    Bit rate : 981 kb/s
    Width : 1 282 pixels
    Height : 536 pixels
    Display aspect ratio : 2.40:1
    Frame rate mode : Constant
    Frame rate : 25.000 FPS
    Color space : YUV
    Chroma subsampling : 4:2:0
    Bit depth : 8 bits
    Scan type : Progressive
    Bits/(Pixel*Frame) : 0.057
    Stream size : 780 MiB (78%)
    Writing library : x264 core 155 r2901 7d0ff22
    Default : Yes
    Forced : No
    Color range : Limited
    Color primaries : BT.709
    Transfer characteristics : BT.709
    Matrix coefficients : BT.709

    Audio #1
    ID : 2
    Format : MPEG Audio
    Format version : Version 1
    Format profile : Layer 3
    Format settings : Joint stereo
    Codec ID : A_MPEG/L3
    Codec ID/Hint : MP3
    Duration : 1 h 51 min
    Bit rate mode : Variable
    Bit rate : 163 kb/s
    Minimum bit rate : 32.0 kb/s
    Channel(s) : 2 channels
    Sampling rate : 44.1 kHz
    Frame rate : 38.281 FPS (1152 SPF)
    Compression mode : Lossy
    Stream size : 130 MiB (13%)
    Writing library : LAME3.100
    Encoding settings : -m j -V 2 -q 0 -lowpass 18.5 --vbr-new -b 32
    Language : Korean
    Default : No
    Forced : No

    Audio #2
    ID : 3
    Format : MPEG Audio
    Format version : Version 1
    Format profile : Layer 3
    Format settings : Joint stereo / MS Stereo
    Codec ID : A_MPEG/L3
    Codec ID/Hint : MP3
    Duration : 1 h 51 min
    Bit rate mode : Variable
    Bit rate : 104 kb/s
    Minimum bit rate : 32.0 kb/s
    Channel(s) : 2 channels
    Sampling rate : 44.1 kHz
    Frame rate : 38.281 FPS (1152 SPF)
    Compression mode : Lossy
    Stream size : 82.6 MiB (8%)
    Writing library : LAME3.100
    Encoding settings : -m j -V 2 -q 0 -lowpass 18.5 --vbr-new -b 32
    Language : Thai
    Default : Yes
    Forced : No





    Download: cornfile
    http://cornfile.com/z6k8sbqqeyrj
    Download: mekafile
    http://www.mekafile.com/dl.php?f=Jtf96bcc57WG

  2. The Following 3 Users Say Thank You to Duckload.us For This Useful Post:

    jangska (07-30-2020), Tellmon (07-31-2020), Wesker_TOT (07-31-2020)

+ ตอบกลับกระทู้

ข้อมูลกระทู้

Users Browsing this Thread

ในขณะนี้มี 1 ท่านดูกระทู้อยู่. (0 สมาชิกและ 1 ผู้เยี่ยมชม)

     

กฎการโพสต์ข้อความ

  • ท่าน ไม่สามารถ ตั้งกระทู้ใหม่ได้
  • ท่าน ไม่สามารถ ตอบกระทู้ได้
  • ท่าน ไม่สามารถ แนบไฟล์ได้
  • ท่าน ไม่สามารถ แก้ไขข้อความโพสต์ได้
  • BB code สถานะ เปิด
  • Smilies สถานะ เปิด
  • [IMG] สถานะ เปิด
  • HTML สถานะ ปิด