+ ตอบกลับกระทู้
สรุปผลการค้นหา 1 ถึง 2 จากทั้งหมด 2
  1. #1
    Administrators รูปส่วนตัว Duckload.us
    สมัครเมื่อ
    Dec 2010
    โพสต์
    116,869
    Thanks
    7
    Thanked 123,180 Times in 55,214 Posts

    Question [จีน]-Desert Legend (2020) ตำนานทะเลทราย - [Soundtrack บรรยายไทย(แปล)+อังกฤษ] CHN.1080p.WEBDL.x264




    หลี่ว์ซานซือ ช่างตีเหล็กที่มีความฝันเข้ายุทธภพ เจอจอมยุทธ์ที่เขานับถือ ชื่อไป๋หลี่อู๋โยวโดยบังเอิญ เขาช่วยส่งตัวเหอชิงยิง ซึ่งเป็นผู้รับใช้ของซีฉ่าง แต่เหอชิงยิงกลับเล่าเรื่องอีกแบบหนึ่งว่าเธอเป็นเหย ื่อของซีฉ่าง ส่วนผู้ทรยศคือไป๋หลี่อู๋โยวต่างหาก ข้อสงสัยมากขึ้นเรื่อย ๆ หลี่ว์ซานซือต้องตัดสินถูกผิดด้วยตนเอง ผู้รับใช้อาจไม่ใช่ผู้รับใช้ และจอมยุทธ์ก็อาจไม่ใช่จอมยุทธ์ ชั่วดีแยกยาก หลี่ว์ซานซือ ผู้ที่ไม่เคยมีประสบการณ์พบว่ายุทธภพนี้ไม่เหมือนกับ ที่ตนเองคิด


    Duration : 1 h 24 min
    Overall bit rate : 1 816 kb/s
    Encoded date : UTC 2020-07-28 14:07:44
    Writing application : mkvmerge v48.0.0 ('Fortress Around Your Heart') 64-bit
    Writing library : libebml v1.4.0 + libmatroska v1.6.0
    Cover : Yes
    Attachments : cover

    Video
    ID : 1
    Format : AVC
    Format/Info : Advanced Video Codec
    Format profile : [email protected]
    Format settings : CABAC / 4 Ref Frames
    Format settings, CABAC : Yes
    Format settings, Reference : 4 frames
    Format settings, GOP : M=4, N=48
    Codec ID : V_MPEG4/ISO/AVC
    Duration : 1 h 24 min
    Bit rate : 1 591 kb/s
    Width : 1 920 pixels
    Height : 720 pixels
    Display aspect ratio : 16:9
    Frame rate mode : Constant
    Frame rate : 24.000 FPS
    Color space : YUV
    Chroma subsampling : 4:2:0
    Bit depth : 8 bits
    Scan type : Progressive
    Bits/(Pixel*Frame) : 0.048
    Stream size : 957 MiB (88%)
    Writing library : x264 core 158
    Encoding settings : cabac=1 / ref=3 / deblock=1:0:0 / analyse=0x3:0x113 / me=hex / subme=7 / psy=1 / psy_rd=1.00:0.00 / mixed_ref=1 / me_range=16 / chroma_me=1 / trellis=1 / 8x8dct=1 / cqm=0 / deadzone=21,11 / fast_pskip=1 / chroma_qp_offset=-2 / threads=22 / lookahead_threads=3 / sliced_threads=0 / nr=0 / decimate=1 / interlaced=0 / bluray_compat=0 / constrained_intra=0 / bframes=3 / b_pyramid=2 / b_adapt=1 / b_bias=0 / direct=1 / weightb=1 / open_gop=0 / weightp=2 / keyint=250 / keyint_min=24 / scenecut=40 / intra_refresh=0 / rc_lookahead=40 / rc=crf / mbtree=1 / crf=25.0 / qcomp=0.60 / qpmin=0 / qpmax=69 / qpstep=4 / ip_ratio=1.40 / aq=1:1.00
    Default : Yes
    Forced : No

    Audio
    ID : 2
    Format : AC-3
    Format/Info : Audio Coding 3
    Commercial name : Dolby Digital
    Codec ID : A_AC3/BSID9
    Duration : 1 h 24 min
    Bit rate mode : Constant
    Bit rate : 192 kb/s
    Channel(s) : 6 channels
    Channel layout : L R C LFE Ls Rs
    Sampling rate : 24.0 kHz
    Frame rate : 31.250 FPS (768 SPF)
    Compression mode : Lossy
    Stream size : 116 MiB (11%)
    Language : Chinese
    Service kind : Complete Main
    Default : Yes
    Forced : No

    Text #1
    ID : 3
    Format : PGS
    Muxing mode : zlib
    Codec ID : S_HDMV/PGS
    Codec ID/Info : Picture based subtitle format used on BDs/HD-DVDs
    Duration : 1 h 23 min
    Bit rate : 28.0 kb/s
    Count of elements : 2946
    Stream size : 16.8 MiB (2%)
    Language : English
    Default : No
    Forced : No

    Text #2
    ID : 4
    Format : PGS
    Muxing mode : zlib
    Codec ID : S_HDMV/PGS
    Codec ID/Info : Picture based subtitle format used on BDs/HD-DVDs
    Duration : 1 h 23 min
    Bit rate : 29.2 kb/s
    Count of elements : 2946
    Stream size : 17.5 MiB (2%)
    Language : Thai
    Default : Yes
    Forced : No



    Download: cornfile
    http://cornfile.com/0473yycda22u
    Download: mekafile
    http://www.mekafile.com/dl.php?f=KB763ecc57xJ

  2. #2
    Senior Member
    สมัครเมื่อ
    Oct 2013
    โพสต์
    1,749
    Thanks
    0
    Thanked 0 Times in 0 Posts
    ขอบคุณครับ

+ ตอบกลับกระทู้

ข้อมูลกระทู้

Users Browsing this Thread

ในขณะนี้มี 1 ท่านดูกระทู้อยู่. (0 สมาชิกและ 1 ผู้เยี่ยมชม)

     

กฎการโพสต์ข้อความ

  • ท่าน ไม่สามารถ ตั้งกระทู้ใหม่ได้
  • ท่าน ไม่สามารถ ตอบกระทู้ได้
  • ท่าน ไม่สามารถ แนบไฟล์ได้
  • ท่าน ไม่สามารถ แก้ไขข้อความโพสต์ได้
  • BB code สถานะ เปิด
  • Smilies สถานะ เปิด
  • [IMG] สถานะ เปิด
  • HTML สถานะ ปิด