+ ตอบกลับกระทู้
สรุปผลการค้นหา 1 ถึง 2 จากทั้งหมด 2
  1. #1
    Administrators รูปส่วนตัว Duckload.us
    สมัครเมื่อ
    Dec 2010
    โพสต์
    116,869
    Thanks
    7
    Thanked 123,180 Times in 55,214 Posts

    Question Hello World (2019) - เธอ.ฉัน.โลก.เรา [[email protected]] [พากย์ญี่ปุ่น AC3 5.1-ไทย AC3 5.1] [อังกฤษ - ไทย]



    เรื่องย่อหนัง Hello World (2019) - เธอ.ฉัน.โลก.เรา

    เรื่องย่อ....ปี 2027 ณ เกียวโต ประเทศญี่ปุ่น วันหนึ่งของ นาโอมิ คาตางากิ เด็กหนุ่มม.ปลายธรรมดาที่ไม่กล้าทำอะไร วัน ๆ เอาแต่อ่านหนังสือและหวังว่าชีวิตของตัวเองจะมีความห มายมากกว่าการกลืนไปกับสังคม ทว่าจู่ ๆ ก็ดันมีตัวเองจากในอนาคตมาบอกว่าเขาจะต้องเป็นแฟนกับ อิจิเกียว รูริ เพื่อนร่วมชั้น ผู้ไม่เข้าสังคม และดูเป็นคนน่ากลัวจนเขายังไม่กล้าเข้าใกล้ แต่เมื่อเวลาผ่านไป ความสัมพันธ์ที่ค่อย ๆ พัฒนาไปเรื่อย ๆ ทำให้หัวใจเขาเปลี่ยนใจ แต่มันกลับมาพร้อมความจริงอันน่าตกใจว่า อีกสามเดือนข้างหน้า รูริ จะต้องตายโดยเหตุการณ์ประหลาด และมีเพียงแค่นาโอมิ เพียงคนเดียวเท่านั้นที่จะหยุดเหตุการณ์นี้ได้ แต่ทว่านาโอมิไม่ได้ตระหนักเลยว่า ทุกสิ่ง มีราคาต้องจ่าย โลกของเขาเอง

    Format : Matroska
    Format version : Version 4
    File size : 4.04 GiB
    Duration : 1 h 37 min
    Overall bit rate : 5 908 kb/s
    Movie name : Hello World 2019 ([email protected])
    Encoded date : UTC 2020-07-27 13:40:23
    Writing application : mkvmerge v48.0.0 ('Fortress Around Your Heart') 64-bit
    Writing library : libebml v1.4.0 + libmatroska v1.6.0

    Video
    ID : 1
    Format : AVC
    Format/Info : Advanced Video Codec
    Format profile : [email protected]
    Format settings : CABAC / 1 Ref Frames
    Format settings, CABAC : Yes
    Format settings, Reference frames : 1 frame
    Codec ID : V_MPEG4/ISO/AVC
    Duration : 1 h 37 min
    Bit rate mode : Constant
    Bit rate : 5 000 kb/s
    Width : 1 920 pixels
    Height : 1 080 pixels
    Display aspect ratio : 16:9
    Frame rate mode : Constant
    Frame rate : 23.976 (24000/1001) FPS
    Color space : YUV
    Chroma subsampling : 4:2:0
    Bit depth : 8 bits
    Scan type : Progressive
    Bits/(Pixel*Frame) : 0.101
    Stream size : 3.38 GiB (84%)
    Language : Japanese
    Default : Yes
    Forced : No
    Color range : Limited
    Color primaries : BT.601 NTSC
    Transfer characteristics : BT.601
    Matrix coefficients : BT.601

    Audio #1
    ID : 2
    Format : AC-3
    Format/Info : Audio Coding 3
    Commercial name : Dolby Digital
    Codec ID : A_AC3
    Duration : 1 h 37 min
    Bit rate mode : Constant
    Bit rate : 448 kb/s
    Channel(s) : 6 channels
    Channel layout : L R C LFE Ls Rs
    Sampling rate : 48.0 kHz
    Frame rate : 31.250 FPS (1536 SPF)
    Bit depth : 16 bits
    Compression mode : Lossy
    Stream size : 313 MiB (8%)
    Language : Japanese
    Service kind : Complete Main
    Default : Yes
    Forced : No

    Audio #2
    ID : 3
    Format : AC-3
    Format/Info : Audio Coding 3
    Commercial name : Dolby Digital
    Codec ID : A_AC3
    Duration : 1 h 37 min
    Bit rate mode : Constant
    Bit rate : 448 kb/s
    Channel(s) : 6 channels
    Channel layout : L R C LFE Ls Rs
    Sampling rate : 48.0 kHz
    Frame rate : 31.250 FPS (1536 SPF)
    Bit depth : 16 bits
    Compression mode : Lossy
    Delay relative to video : 1 s 0 ms
    Stream size : 313 MiB (8%)
    Language : Thai
    Service kind : Complete Main
    Default : No
    Forced : No

    Text #1
    ID : 4
    Format : PGS
    Muxing mode : zlib
    Codec ID : S_HDMV/PGS
    Codec ID/Info : Picture based subtitle format used on BDs/HD-DVDs
    Duration : 1 h 34 min
    Bit rate : 39.8 kb/s
    Count of elements : 2054
    Stream size : 27.0 MiB (1%)
    Language : English
    Default : Yes
    Forced : No

    Text #2
    ID : 5
    Format : PGS
    Muxing mode : zlib
    Codec ID : S_HDMV/PGS
    Codec ID/Info : Picture based subtitle format used on BDs/HD-DVDs
    Duration : 1 h 34 min
    Bit rate : 39.8 kb/s
    Count of elements : 2054
    Stream size : 27.0 MiB (1%)
    Language : English
    Default : No
    Forced : No

    Text #3
    ID : 6
    Format : PGS
    Muxing mode : zlib
    Codec ID : S_HDMV/PGS
    Codec ID/Info : Picture based subtitle format used on BDs/HD-DVDs
    Duration : 1 h 34 min
    Bit rate : 50.8 kb/s
    Count of elements : 2054
    Stream size : 34.4 MiB (1%)
    Language : Thai
    Default : No
    Forced : No

    Text #4
    ID : 7
    Format : PGS
    Muxing mode : zlib
    Codec ID : S_HDMV/PGS
    Codec ID/Info : Picture based subtitle format used on BDs/HD-DVDs
    Duration : 1 h 34 min
    Bit rate : 50.8 kb/s
    Count of elements : 2054
    Stream size : 34.4 MiB (1%)
    Language : Thai
    Default : No
    Forced : No

    Menu
    00:00:00.000 : en:Chapter 1
    00:06:44.362 : en:Chapter 2
    00:13:36.774 : en:Chapter 3
    00:22:41.652 : en:Chapter 4
    00:30:46.762 : en:Chapter 5
    00:38:49.661 : en:Chapter 6
    00:45:10.833 : en:Chapter 7
    00:52:22.264 : en:Chapter 8
    01:00:40.428 : en:Chapter 9
    01:06:08.673 : en:Chapter 10
    01:15:54.175 : en:Chapter 11
    01:26:55.043 : en:Chapter 12





    Download: cornfile
    http://cornfile.com/rrs61dipxfj7
    Download: mekafile
    meka รออัพ..*ระบบกำลังประมวลผลไฟล์.ค้าง*

  2. The Following 2 Users Say Thank You to Duckload.us For This Useful Post:

    jangska (07-30-2020), Wesker_TOT (07-31-2020)

  3. #2
    Senior Member
    สมัครเมื่อ
    Jul 2013
    โพสต์
    872
    Thanks
    0
    Thanked 0 Times in 0 Posts
    หลงรักนางเอกเลยครับ เรื่องนี้

+ ตอบกลับกระทู้

ข้อมูลกระทู้

Users Browsing this Thread

ในขณะนี้มี 1 ท่านดูกระทู้อยู่. (0 สมาชิกและ 1 ผู้เยี่ยมชม)

     

กฎการโพสต์ข้อความ

  • ท่าน ไม่สามารถ ตั้งกระทู้ใหม่ได้
  • ท่าน ไม่สามารถ ตอบกระทู้ได้
  • ท่าน ไม่สามารถ แนบไฟล์ได้
  • ท่าน ไม่สามารถ แก้ไขข้อความโพสต์ได้
  • BB code สถานะ เปิด
  • Smilies สถานะ เปิด
  • [IMG] สถานะ เปิด
  • HTML สถานะ ปิด