Sun Wukong, who became the “Fighting Buddha”, was bewitched by the spirits and the Longevity Monk met his doom! At the critical moment, Sun Wukong uncovers the source of the spirits and discovers that she is Lucky Star, a goddess of the celestial realm with whom he has been fated for 300 years. ! In order to find out why Lucky Star has turned black and to save the Longevity Monk, the Monkey King sets out on a journey back in time, but ends up losing his… A tear. The great saint’s tears, for what and for whom are they shed?


Duration : 1 h 11 min
Overall bit rate : 1 972 kb/s
Encoded date : UTC 2020-07-30 12:45:03
Writing application : mkvmerge v48.0.0 ('Fortress Around Your Heart') 64-bit
Writing library : libebml v1.4.0 + libmatroska v1.6.0
Cover : Yes
Attachments : cover

Video
ID : 1
Format : AVC
Format/Info : Advanced Video Codec
Format profile : [email protected]
Format settings : CABAC / 4 Ref Frames
Format settings, CABAC : Yes
Format settings, Reference : 4 frames
Codec ID : V_MPEG4/ISO/AVC
Duration : 1 h 11 min
Bit rate : 1 757 kb/s
Width : 1 920 pixels
Height : 800 pixels
Display aspect ratio : 16:9
Frame rate mode : Constant
Frame rate : 25.000 FPS
Color space : YUV
Chroma subsampling : 4:2:0
Bit depth : 8 bits
Scan type : Progressive
Bits/(Pixel*Frame) : 0.046
Stream size : 896 MiB (89%)
Writing library : x264 core 158
Encoding settings : cabac=1 / ref=3 / deblock=1:0:0 / analyse=0x3:0x113 / me=hex / subme=7 / psy=1 / psy_rd=1.00:0.00 / mixed_ref=1 / me_range=16 / chroma_me=1 / trellis=1 / 8x8dct=1 / cqm=0 / deadzone=21,11 / fast_pskip=1 / chroma_qp_offset=-2 / threads=12 / lookahead_threads=2 / sliced_threads=0 / nr=0 / decimate=1 / interlaced=0 / bluray_compat=0 / constrained_intra=0 / bframes=3 / b_pyramid=2 / b_adapt=1 / b_bias=0 / direct=1 / weightb=1 / open_gop=0 / weightp=2 / keyint=250 / keyint_min=25 / scenecut=40 / intra_refresh=0 / rc_lookahead=40 / rc=crf / mbtree=1 / crf=25.0 / qcomp=0.60 / qpmin=0 / qpmax=69 / qpstep=4 / ip_ratio=1.40 / aq=1:1.00
Default : Yes
Forced : No

Audio
ID : 2
Format : AC-3
Format/Info : Audio Coding 3
Commercial name : Dolby Digital
Codec ID : A_AC3/BSID9
Duration : 1 h 11 min
Bit rate mode : Constant
Bit rate : 192 kb/s
Channel(s) : 6 channels
Channel layout : L R C LFE Ls Rs
Sampling rate : 24.0 kHz
Frame rate : 31.250 FPS (768 SPF)
Compression mode : Lossy
Stream size : 97.9 MiB (10%)
Language : Chinese
Service kind : Complete Main
Default : Yes
Forced : No

Text #1
ID : 3
Format : PGS
Muxing mode : zlib
Codec ID : S_HDMV/PGS
Codec ID/Info : Picture based subtitle format used on BDs/HD-DVDs
Duration : 1 h 10 min
Bit rate : 20.1 kb/s
Count of elements : 1864
Stream size : 10.1 MiB (1%)
Language : English
Default : No
Forced : No

Text #2
ID : 4
Format : PGS
Muxing mode : zlib
Codec ID : S_HDMV/PGS
Codec ID/Info : Picture based subtitle format used on BDs/HD-DVDs
Duration : 1 h 10 min
Bit rate : 21.0 kb/s
Count of elements : 1864
Stream size : 10.6 MiB (1%)
Language : Thai
Default : Yes
Forced : No






Download: cornfile
http://cornfile.com/y6qgdvg2lupl
Download: mekafile
meka รออัพ..*ระบบล่ม*