+ ตอบกลับกระทู้
สรุปผลการค้นหา 1 ถึง 3 จากทั้งหมด 3
  1. #1
    Administrators รูปส่วนตัว Duckload.us
    สมัครเมื่อ
    Dec 2010
    โพสต์
    118,529
    Thanks
    7
    Thanked 124,623 Times in 55,790 Posts

    Question [ฝรั่ง]-[NETFLIX] Latte & the Magic Waterstone (2020) ลาเต้ผจญภัยกับศิลาแห่งสายน้ำ-WEB-DL.AC-3.1080p. [Modified]-[พากย์ไทย บรรยายไทย]



    เรื่องย่อ
    เมื่อหมีจอมโลภขโมยศิลาศักดิ์สิทธิ์ไปเพื่อเก็บน้ำใน ป่าไว้ใช้เอง เม่นใจกล้ากับกระรอกขี้กลัวจึงต้องร่วมมือกันเพื่อหา ทางทวงศิลาศักดิ์สิทธิ์กลับคืนมา

    Code:
    Format                      : Matroska
    Format version              : Version 4
    File size                   : 3.50 GiB
    Duration                    : 1 h 22 min
    Overall bit rate            : 6 043 kb/s
    Encoded date                : UTC 2020-08-01 12:29:59
    Writing application         : mkvmerge v48.0.0 ('Fortress Around Your Heart') 64-bit
    Writing library             : libebml v1.4.0 + libmatroska v1.6.0
    
    Video
    ID                          : 1
    Format                      : AVC
    Format/Info                 : Advanced Video Codec
    Format profile              : [email protected]
    Format settings             : CABAC / 3 Ref Frames
    Format settings, CABAC      : Yes
    Format settings, Reference  : 3 frames
    Codec ID                    : V_MPEG4/ISO/AVC
    Duration                    : 1 h 22 min
    Bit rate                    : 4 709 kb/s
    Width                       : 1 920 pixels
    Height                      : 1 036 pixels
    Display aspect ratio        : 1.85:1
    Frame rate mode             : Constant
    Frame rate                  : 24.000 FPS
    Color space                 : YUV
    Chroma subsampling          : 4:2:0
    Bit depth                   : 8 bits
    Scan type                   : Progressive
    Bits/(Pixel*Frame)          : 0.099
    Stream size                 : 2.72 GiB (78%)
    Language                    : English
    Default                     : Yes
    Forced                      : No
    
    Audio #1
    ID                          : 2
    Format                      : E-AC-3
    Format/Info                 : Enhanced AC-3
    Commercial name             : Dolby Digital Plus
    Codec ID                    : A_EAC3
    Duration                    : 1 h 22 min
    Bit rate mode               : Constant
    Bit rate                    : 640 kb/s
    Channel(s)                  : 6 channels
    Channel layout              : L R C LFE Ls Rs
    Sampling rate               : 48.0 kHz
    Frame rate                  : 31.250 FPS (1536 SPF)
    Compression mode            : Lossy
    Stream size                 : 379 MiB (11%)
    Title                       : AC-3 English
    Language                    : English
    Service kind                : Complete Main
    Default                     : Yes
    Forced                      : No
    
    Audio #2
    ID                          : 3
    Format                      : E-AC-3
    Format/Info                 : Enhanced AC-3
    Commercial name             : Dolby Digital Plus
    Codec ID                    : A_EAC3
    Duration                    : 1 h 22 min
    Bit rate mode               : Constant
    Bit rate                    : 640 kb/s
    Channel(s)                  : 6 channels
    Channel layout              : L R C LFE Ls Rs
    Sampling rate               : 48.0 kHz
    Frame rate                  : 31.250 FPS (1536 SPF)
    Compression mode            : Lossy
    Stream size                 : 379 MiB (11%)
    Title                       : AC-3 Thai
    Language                    : Thai
    Service kind                : Complete Main
    Default                     : No
    Forced                      : No
    
    Text #1
    ID                          : 4
    Format                      : VobSub
    Muxing mode                 : zlib
    Codec ID                    : S_VOBSUB
    Codec ID/Info               : Picture based subtitle format used on DVDs
    Duration                    : 1 h 15 min
    Bit rate                    : 12.5 kb/s
    Count of elements           : 1288
    Stream size                 : 6.74 MiB (0%)
    Title                       : Sub Thai 1080p
    Language                    : Thai
    Default                     : No
    Forced                      : No
    
    Text #2
    ID                          : 5
    Format                      : UTF-8
    Codec ID                    : S_TEXT/UTF8
    Codec ID/Info               : UTF-8 Plain Text
    Duration                    : 1 h 15 min
    Bit rate                    : 144 b/s
    Count of elements           : 1288
    Stream size                 : 79.7 KiB (0%)
    Title                       : Sub Thai SRT
    Language                    : Thai
    Default                     : No
    Forced                      : No
    
    Text #3
    ID                          : 6
    Format                      : PGS
    Muxing mode                 : zlib
    Codec ID                    : S_HDMV/PGS
    Codec ID/Info               : Picture based subtitle format used on BDs/HD-DVDs
    Duration                    : 1 h 15 min
    Bit rate                    : 41.8 kb/s
    Count of elements           : 2576
    Stream size                 : 22.5 MiB (1%)
    Title                       : Sub Thai PGS
    Language                    : Thai
    Default                     : Yes
    Forced                      : No
    
    Text #4
    ID                          : 7
    Format                      : VobSub
    Muxing mode                 : zlib
    Codec ID                    : S_VOBSUB
    Codec ID/Info               : Picture based subtitle format used on DVDs
    Duration                    : 1 h 18 min
    Bit rate                    : 12.5 kb/s
    Count of elements           : 1253
    Stream size                 : 6.96 MiB (0%)
    Title                       : Sub English 1080p
    Language                    : English
    Default                     : No
    Forced                      : No
    
    Text #5
    ID                          : 8
    Format                      : UTF-8
    Codec ID                    : S_TEXT/UTF8
    Codec ID/Info               : UTF-8 Plain Text
    Duration                    : 1 h 18 min
    Bit rate                    : 61 b/s
    Count of elements           : 1253
    Stream size                 : 35.1 KiB (0%)
    Title                       : Sub English SRT
    Language                    : English
    Default                     : No
    Forced                      : No
    
    Text #6
    ID                          : 9
    Format                      : PGS
    Muxing mode                 : zlib
    Codec ID                    : S_HDMV/PGS
    Codec ID/Info               : Picture based subtitle format used on BDs/HD-DVDs
    Duration                    : 1 h 18 min
    Bit rate                    : 41.7 kb/s
    Count of elements           : 2506
    Stream size                 : 23.3 MiB (1%)
    Title                       : Sub English PGS
    Language                    : English
    Default                     : No
    Forced                      : No




    Download: cornfile
    http://cornfile.com/pn0v73pxumw0
    Download: mekafile
    meka รออัพ..*ระบบล่ม*

  2. The Following 2 Users Say Thank You to Duckload.us For This Useful Post:

    apichartdear (08-04-2020), gaszolineskywalker (08-16-2020)

  3. #2
    Senior Member
    สมัครเมื่อ
    Oct 2012
    โพสต์
    1,293
    Thanks
    2,221
    Thanked 0 Times in 0 Posts
    ขอบคุณครับ

  4. #3
    Senior Member
    สมัครเมื่อ
    Jul 2013
    โพสต์
    1,153
    Thanks
    0
    Thanked 0 Times in 0 Posts
    หลานชอบกันใหญ่ สนุกดี

+ ตอบกลับกระทู้

ข้อมูลกระทู้

Users Browsing this Thread

ในขณะนี้มี 1 ท่านดูกระทู้อยู่. (0 สมาชิกและ 1 ผู้เยี่ยมชม)

     

กฎการโพสต์ข้อความ

  • ท่าน ไม่สามารถ ตั้งกระทู้ใหม่ได้
  • ท่าน ไม่สามารถ ตอบกระทู้ได้
  • ท่าน ไม่สามารถ แนบไฟล์ได้
  • ท่าน ไม่สามารถ แก้ไขข้อความโพสต์ได้
  • BB code สถานะ เปิด
  • Smilies สถานะ เปิด
  • [IMG] สถานะ เปิด
  • HTML สถานะ ปิด