+ ตอบกลับกระทู้
สรุปผลการค้นหา 1 ถึง 2 จากทั้งหมด 2
  1. #1
    Administrators รูปส่วนตัว Duckload.us
    สมัครเมื่อ
    Dec 2010
    โพสต์
    119,943
    Thanks
    7
    Thanked 125,360 Times in 56,076 Posts

    Lightbulb [จีน]- จูเซียน กระบี่เทพสั่งหาร .EP01-35-WEB-DL.H.264.1080p. [From HD-TV]-[พากย์ไทย บรรยายไทย]



    จูเซียน กระบี่เทพสังหาร
    ดัดแปลงเนื้อหามาจากนิยายและเกมส์ออนไลน์ แนวอภินิหาร แฟนตาซี เทพเซียน เป็นเรื่องของจางเสี่ยวฝาน (หลี่อี้เฟิง) และ หลินจิงอวี่ (เฉิงอี้) สองเด็กกำพร้ารอดจากการสังหารหมู่ เพราะไม่มีหนทางจึงจำต้องขึ้นเขาเมฆาเขียวฝากตัวเป็น ศิษย์ หลินจิงอวี่เป็นเด็กที่มีแววฉลาด ในขณะที่เสี่ยวฝานดูจะไม่ค่อยทันคน ทั้งสองต้องแยกกราบอาจารย์คนละคน
    เสี่ยวฝานร่วมเรียนวิชากับศิษย์พี่ทั้ง 7 เราจะได้เห็นการเติบโตของเสี่ยวฝานซึ่งในช่วงแรกๆ เป็นเด็กโง่งมที่ไม่มีใครอยากรับเป็นศิษย์ตัวเอง ได้เห็นเสี่ยวฝานรู้จักความรัก ผิดหวังกับรัก
    พบเจอผู้คนมากมายทั้งดีและเลว มองดูเสี่ยวฝานที่ค่อยๆ ถูกไล่ต้อน ท้ายที่สุดถูกบีบให้เลือกว่าจะเป็นธรรมะหรืออธรรม


    Video
    ID : 1
    Format : AVC
    Format/Info : Advanced Video Codec
    Format profile : [email protected]
    Format settings, CABAC : Yes
    Format settings, RefFrames : 3 frames
    Codec ID : V_MPEG4/ISO/AVC
    Duration : 46 min 6 s
    Bit rate : 3 001 kb/s
    Width : 1 920 pixels
    Height : 1 080 pixels
    Display aspect ratio : 16:9
    Frame rate mode : Constant
    Frame rate : 25.000 FPS
    Color space : YUV
    Chroma subsampling : 4:2:0
    Bit depth : 8 bits
    Scan type : Progressive
    Bits/(Pixel*Frame) : 0.058
    Stream size : 990 MiB (83%)
    Default : Yes
    Forced : No
    HANDLER_NAME : VideoHandler

    Audio #1
    ID : 2
    Format : AC-3
    Format/Info : Audio Coding 3
    Format settings, Endianness : Big
    Codec ID : A_AC3
    Duration : 46 min 10 s
    Bit rate mode : Constant
    Bit rate : 448 kb/s
    Channel(s) : 2 channels
    Channel positions : Front: L R
    Sampling rate : 48.0 kHz
    Frame rate : 31.250 FPS (1536 SPF)
    Bit depth : 16 bits
    Compression mode : Lossy
    Delay relative to video : -72 ms
    Stream size : 148 MiB (12%)
    Title : [AC3-Thai]
    Language : Thai
    Service kind : Complete Main
    Default : Yes
    Forced : No

    Audio #2
    ID : 3
    Format : AAC
    Format/Info : Advanced Audio Codec
    Format profile : LC
    Codec ID : A_AAC
    Duration : 46 min 6 s
    Bit rate : 128 kb/s
    Channel(s) : 2 channels
    Channel positions : Front: L R
    Sampling rate : 44.1 kHz
    Frame rate : 43.066 FPS (1024 SPF)
    Compression mode : Lossy
    Delay relative to video : -80 ms
    Stream size : 42.2 MiB (4%)
    Title : [AAC-Chinese]
    Language : Chinese
    Default : No
    Forced : No
    HANDLER_NAME : SoundHandler

    Text #1
    ID : 4
    Format : PGS
    Muxing mode : zlib
    Codec ID : S_HDMV/PGS
    Codec ID/Info : Picture based subtitle format used on BDs/HD-DVDs
    Duration : 41 min 14 s
    Bit rate : 27.1 kb/s
    Count of elements : 1020
    Stream size : 8.00 MiB (1%)
    Title : [PGS-Thai]
    Language : Thai
    Default : Yes
    Forced : No

    Text #2
    ID : 5
    Format : PGS
    Muxing mode : zlib
    Codec ID : S_HDMV/PGS
    Codec ID/Info : Picture based subtitle format used on BDs/HD-DVDs
    Duration : 41 min 14 s
    Bit rate : 27.1 kb/s
    Count of elements : 1020
    Stream size : 8.00 MiB (1%)
    Title : [PGS-Thai] Yellow
    Language : Thai
    Default : No
    Forced : No

    Text #3
    ID : 6
    Format : PGS
    Muxing mode : zlib
    Codec ID : S_HDMV/PGS
    Codec ID/Info : Picture based subtitle format used on BDs/HD-DVDs
    Duration : 41 min 14 s
    Bit rate : 27.1 kb/s
    Count of elements : 1020
    Stream size : 8.00 MiB (1%)
    Title : [PGS-Thai] Yellow
    Language : Thai
    Default : No
    Forced : No





    1
    http://www.filecondo.com/dl.php?f=4928181K2Rvv
    2
    http://www.filecondo.com/dl.php?f=b999831K2Rws
    3
    http://www.filecondo.com/dl.php?f=i41a391K168A
    4
    http://www.filecondo.com/dl.php?f=477adf1K169y
    5
    http://www.filecondo.com/dl.php?f=F3c2911K2Rxq
    6
    http://www.filecondo.com/dl.php?f=fe641e1K2Ryp
    7
    http://www.filecondo.com/dl.php?f=Hcc7961K3Acc
    8
    http://www.filecondo.com/dl.php?f=mc07f61K3Ad9
    9
    http://www.filecondo.com/dl.php?f=s2b9f81K6c5z
    10
    http://www.filecondo.com/dl.php?f=y4892f1K6c4B
    11
    http://www.filecondo.com/dl.php?f=w108211K93lf
    12
    http://www.filecondo.com/dl.php?f=o4232b1K93mc
    13
    http://www.filecondo.com/dl.php?f=Dd38191KbbdH
    14
    http://www.filecondo.com/dl.php?f=sdb02b1KbbeE
    15
    http://www.filecondo.com/dl.php?f=Wa7bed1KessE
    16
    http://www.filecondo.com/dl.php?f=t28db21KestC
    17
    http://www.filecondo.com/dl.php?f=8317fa1KgG2n
    18
    http://www.filecondo.com/dl.php?f=ab4e351KgG3k
    19
    http://www.filecondo.com/dl.php?f=ifb3351Kja2b
    20
    http://www.filecondo.com/dl.php?f=rc2d761Kja39
    21
    http://www.filecondo.com/dl.php?f=P6b7a71Kmtc6
    22
    http://www.filecondo.com/dl.php?f=7d684b1Kmtd3
    23
    http://www.filecondo.com/dl.php?f=L644201Kogx3
    24
    http://www.filecondo.com/dl.php?f=Fe91e21Kogy0
    25
    http://www.filecondo.com/dl.php?f=zdd0021KqrNt
    26
    http://www.filecondo.com/dl.php?f=W55b811KqrOr
    27
    http://www.filecondo.com/dl.php?f=Y8545a1Kwhp9
    28
    http://www.filecondo.com/dl.php?f=lfb8b41Kwhq7
    29
    http://www.filecondo.com/dl.php?f=l1e1511Kwhr5
    30
    http://www.filecondo.com/dl.php?f=g0655d1Kwhs3
    31
    http://www.filecondo.com/dl.php?f=zddde01Kwht0
    32
    http://www.filecondo.com/dl.php?f=0f1b7a1KwhtZ
    33
    http://www.filecondo.com/dl.php?f=1634711KwhuX
    34
    http://www.filecondo.com/dl.php?f=I3ea241KwhvV
    35
    http://www.filecondo.com/dl.php?f=ab26ae1KwhwT

  2. The Following User Says Thank You to Duckload.us For This Useful Post:

    poona14 (08-16-2020)

  3. #2
    Senior Member
    สมัครเมื่อ
    Aug 2012
    โพสต์
    175
    Thanks
    0
    Thanked 0 Times in 0 Posts
    ขอบคุณมากครับ รบกวนลงต่อด้วยนะครับ

+ ตอบกลับกระทู้

ข้อมูลกระทู้

Users Browsing this Thread

ในขณะนี้มี 1 ท่านดูกระทู้อยู่. (0 สมาชิกและ 1 ผู้เยี่ยมชม)

     

กฎการโพสต์ข้อความ

  • ท่าน ไม่สามารถ ตั้งกระทู้ใหม่ได้
  • ท่าน ไม่สามารถ ตอบกระทู้ได้
  • ท่าน ไม่สามารถ แนบไฟล์ได้
  • ท่าน ไม่สามารถ แก้ไขข้อความโพสต์ได้
  • BB code สถานะ เปิด
  • Smilies สถานะ เปิด
  • [IMG] สถานะ เปิด
  • HTML สถานะ ปิด