+ ͺѺз
ػšä 1 ֧ 4 ҡ 4
  1. #1
    Administrators ٻǹ Duckload.us
    Ѥ
    Dec 2010
    ʵ
    118,603
    Thanks
    7
    Thanked 124,646 Times in 55,799 Posts

    Question []-Alive (2020)-Encode.H.264.1080i. [Modified]-[Soundtrack ()][ѺŤسҾ]




    Alive (2020) ӡѺ ͧ ҩ¡ѹ ҹҪѧ

    ¹ǡö١ʻ˹ѧ Ң觼šз͡ôԹԵ· Ҩԧѹ⤵è͹駡Ѻҹͧ ¹͹෹ǡѺ˹ѧ ˹ѧͧ˹駸Ҩеͧ仴 ͹ ¼¹ҡѺǡѺ ͧ ͧѹ ͵ͧ ੾˹ѧҧ м¹ѹԴ ѹ繡ʻ˹ѧҧѴਹ

    ¹ҡԴͧǵҧ 仾ѺФҡ͹ ҡ֡ѹʴԧ ͧԴ ҧ˹ѧ֧ҾѴ仵ѴẺ§ ӴѺ ѹ ҵФõҧ ѹͧ͡Ѻúҧ Ҵ٨ԧ ѹ¾ͨ Ҫǧ˹˵ءóѹç˹ͧŹ ͧ 55555 ҡ

    ҫ 觤㨤 оٴ֧˹ѧͧ Alive ˹ѧѭҵ Ե ҧҡó价ǻ դғԷ ͵Ҫͧʹѹá 觶ҷʶԵͧ˹ѧç ԷԴ ˹ѧҴͧͧ÷ͧҪԵʹ; 鹢ͧͧ ҧ٧áԨѡ ͺءѹ ҵͧʹ ѧͧªԵ˹ ͧ觵çա ѹ˹ ˹ѧ¤ͺҡ ҳ ҡѺ˹ҷ᷹͡ѧ ^..^

    ͼ¹ҡͧҡ Ǥͷҩ ǹҹ ѧդ˹Դҩ ͼ¹ͧ §ҡҢͧ·ⴹʻ 仡͹ѹѹ() ͹§ͤ˹ѧպԢԷǻ Сѹ

    #ALIVE (2020) 繼ŧҹҹѹҧѡ¹дѺ ٴ Matt Naylor мӡѺ Jo Il-Hyeong ͧǡѺкҴͧ ʻȹ ˵ءóعç֧鹷ҡԹäǺ ֧餹ͧ繽٧ѹ ع (Yoo Ah In) ٺԹ (Park Shin Hye) 2 ʹԵǤ; еͧҪԵʹҡ٧˵ءó駹 ǡҨзҧ ͷͧ١ѴҴҡš¹͡ ѭҳ ѭҳѾ öҹ



    ˹ѧѭҵ
    §
    Ѻ½ѧ
    ѺŤسҾ ҹͧ͹

    Format : MPEG-4
    Format profile : Base Media / Version 2
    Codec ID : mp42 (isom/iso2/avc1/mp41)
    File size : 1.47 GiB
    Duration : 1 h 38 min
    Overall bit rate : 2 141 kb/s
    Encoded date : UTC 2020-08-01 10:59:15
    Tagged date : UTC 2020-08-01 10:59:15
    Writing application : HandBrake 1.3.2 2020050300

    Video
    ID : 1
    Format : AVC
    Format/Info : Advanced Video Codec
    Format profile : [email protected]
    Format settings : CABAC / 4 Ref Frames
    Format settings, CABAC : Yes
    Format settings, Reference frames : 4 frames
    Codec ID : avc1
    Codec ID/Info : Advanced Video Coding
    Duration : 1 h 38 min
    Bit rate : 1 974 kb/s
    Width : 1 920 pixels
    Height : 804 pixels
    Display aspect ratio : 2.40:1
    Frame rate mode : Variable
    Frame rate : 23.976 (24000/1001) FPS
    Minimum frame rate : 23.974 FPS
    Maximum frame rate : 23.981 FPS
    Color space : YUV
    Chroma subsampling : 4:2:0
    Bit depth : 8 bits
    Scan type : Progressive
    Bits/(Pixel*Frame) : 0.053
    Stream size : 1.35 GiB (92%)
    Writing library : x264 core 157 r2935 545de2f
    Encoding settings : cabac=1 / ref=1 / deblock=1:0:0 / analyse=0x1:0x111 / me=hex / subme=2 / psy=1 / psy_rd=1.00:0.00 / mixed_ref=0 / me_range=16 / chroma_me=1 / trellis=0 / 8x8dct=0 / cqm=0 / deadzone=21,11 / fast_pskip=1 / chroma_qp_offset=0 / threads=12 / lookahead_threads=4 / sliced_threads=0 / nr=0 / decimate=1 / interlaced=0 / bluray_compat=0 / constrained_intra=0 / bframes=3 / b_pyramid=2 / b_adapt=1 / b_bias=0 / direct=1 / weightb=1 / open_gop=0 / weightp=1 / keyint=240 / keyint_min=24 / scenecut=40 / intra_refresh=0 / rc_lookahead=10 / rc=crf / mbtree=1 / crf=24.0 / qcomp=0.60 / qpmin=0 / qpmax=69 / qpstep=4 / vbv_maxrate=20000 / vbv_bufsize=25000 / crf_max=0.0 / nal_hrd=none / filler=0 / ip_ratio=1.40 / aq=1:1.00
    Encoded date : UTC 2020-08-01 10:59:15
    Tagged date : UTC 2020-08-01 10:59:15
    Color range : Limited
    Color primaries : BT.709
    Transfer characteristics : BT.709
    Matrix coefficients : BT.709
    Codec configuration box : avcC

    Audio
    ID : 2
    Format : AAC LC
    Format/Info : Advanced Audio Codec Low Complexity
    Codec ID : mp4a-40-2
    Duration : 1 h 38 min
    Bit rate mode : Constant
    Bit rate : 160 kb/s
    Channel(s) : 2 channels
    Channel layout : L R
    Sampling rate : 48.0 kHz
    Frame rate : 46.875 FPS (1024 SPF)
    Compression mode : Lossy
    Stream size : 113 MiB (7%)
    Title : Stereo
    Language : Korean
    Default : Yes
    Alternate group : 1
    Encoded date : UTC 2020-08-01 10:59:15
    Tagged date : UTC 2020-08-01 10:59:15







    Download: cornfile
    http://cornfile.com/xsnu8nr1flsl
    Download: mekafile
    meka Ѿ..*к*

  2. The Following 2 Users Say Thank You to Duckload.us For This Useful Post:

    jangska (08-04-2020), Wesker_TOT (08-05-2020)

  3. #2
    Senior Member
    Ѥ
    Dec 2013
    ʵ
    2,380
    Thanks
    4,305
    Thanked 0 Times in 0 Posts
    ͺسѺ...

  4. #3
    Senior Member
    Ѥ
    Oct 2013
    ʵ
    1,756
    Thanks
    0
    Thanked 0 Times in 0 Posts
    ͺسѺ

  5. #4
    Senior Member
    Ѥ
    Jul 2013
    ʵ
    1,165
    Thanks
    0
    Thanked 0 Times in 0 Posts
    ͺسѺ

šз

Users Browsing this Thread

㹢й 1 ҹ١з. (0 Ҫԡ 1 )

     

ʵͤ

  • ҹ ö 駡з
  • ҹ ö ͺз
  • ҹ ö
  • ҹ ö 䢢ͤʵ