เรื่องย่อ
ตำรวจนอกคอกทำคดีที่เจ้าของบ้านถูกฆาตกรรมหลังแต่งงา นไม่นาน ความขัดแย้งในใจเขาเองประกอบกับครอบครัวของเหยื่อที่ คล้ายมีความลับทำให้คดีซับซ้อนยิ่งขึ้น

Code:
Format                      : Matroska
Format version              : Version 4
File size                   : 4.86 GiB
Duration                    : 2 h 29 min
Overall bit rate            : 4 649 kb/s
Encoded date                : UTC 2020-08-02 13:38:42
Writing application         : mkvmerge v48.0.0 ('Fortress Around Your Heart') 64-bit
Writing library             : libebml v1.4.0 + libmatroska v1.6.0

Video
ID                          : 1
Format                      : AVC
Format/Info                 : Advanced Video Codec
Format profile              : [email protected]
Format settings             : CABAC / 3 Ref Frames
Format settings, CABAC      : Yes
Format settings, Reference  : 3 frames
Codec ID                    : V_MPEG4/ISO/AVC
Duration                    : 2 h 29 min
Bit rate                    : 3 201 kb/s
Width                       : 1 920 pixels
Height                      : 820 pixels
Display aspect ratio        : 2.35:1
Frame rate mode             : Constant
Frame rate                  : 24.000 FPS
Color space                 : YUV
Chroma subsampling          : 4:2:0
Bit depth                   : 8 bits
Scan type                   : Progressive
Bits/(Pixel*Frame)          : 0.085
Stream size                 : 3.35 GiB (69%)
Language                    : Hindi
Default                     : Yes
Forced                      : No

Audio #1
ID                          : 2
Format                      : E-AC-3 JOC
Format/Info                 : Enhanced AC-3 with Joint Object Coding
Commercial name             : Dolby Digital Plus with Dolby Atmos
Codec ID                    : A_EAC3
Duration                    : 2 h 29 min
Bit rate mode               : Constant
Bit rate                    : 768 kb/s
Channel(s)                  : 6 channels
Channel layout              : L R C LFE Ls Rs
Sampling rate               : 48.0 kHz
Frame rate                  : 31.250 FPS (1536 SPF)
Compression mode            : Lossy
Stream size                 : 822 MiB (17%)
Title                       : AC-3 Hindi
Language                    : Hindi
Service kind                : Complete Main
Default                     : Yes
Forced                      : No
Complexity index            : 16
Number of dynamic objects   : 15
Bed channel count           : 1 channel
Bed channel configuration   : LFE

Audio #2
ID                          : 3
Format                      : E-AC-3
Format/Info                 : Enhanced AC-3
Commercial name             : Dolby Digital Plus
Codec ID                    : A_EAC3
Duration                    : 2 h 29 min
Bit rate mode               : Constant
Bit rate                    : 640 kb/s
Channel(s)                  : 6 channels
Channel layout              : L R C LFE Ls Rs
Sampling rate               : 48.0 kHz
Frame rate                  : 31.250 FPS (1536 SPF)
Compression mode            : Lossy
Stream size                 : 685 MiB (14%)
Title                       : AC-3 English
Language                    : English
Service kind                : Complete Main
Default                     : No
Forced                      : No

Text #1
ID                          : 4
Format                      : VobSub
Muxing mode                 : zlib
Codec ID                    : S_VOBSUB
Codec ID/Info               : Picture based subtitle format used on DVDs
Duration                    : 2 h 28 min
Bit rate                    : 9 105 b/s
Count of elements           : 1408
Stream size                 : 9.69 MiB (0%)
Title                       : Sub Thai 1080p
Language                    : Thai
Default                     : No
Forced                      : No

Text #2
ID                          : 5
Format                      : UTF-8
Codec ID                    : S_TEXT/UTF8
Codec ID/Info               : UTF-8 Plain Text
Duration                    : 2 h 28 min
Bit rate                    : 102 b/s
Count of elements           : 1408
Stream size                 : 112 KiB (0%)
Title                       : Sub Thai SRT
Language                    : Thai
Default                     : No
Forced                      : No

Text #3
ID                          : 6
Format                      : PGS
Muxing mode                 : zlib
Codec ID                    : S_HDMV/PGS
Codec ID/Info               : Picture based subtitle format used on BDs/HD-DVDs
Duration                    : 2 h 28 min
Bit rate                    : 29.6 kb/s
Count of elements           : 2816
Stream size                 : 31.5 MiB (1%)
Title                       : Sub Thai PGS
Language                    : Thai
Default                     : Yes
Forced                      : No

Text #4
ID                          : 7
Format                      : VobSub
Muxing mode                 : zlib
Codec ID                    : S_VOBSUB
Codec ID/Info               : Picture based subtitle format used on DVDs
Duration                    : 2 h 16 min
Bit rate                    : 8 972 b/s
Count of elements           : 1381
Stream size                 : 8.79 MiB (0%)
Title                       : Sub English 1080p
Language                    : English
Default                     : No
Forced                      : No

Text #5
ID                          : 8
Format                      : UTF-8
Codec ID                    : S_TEXT/UTF8
Codec ID/Info               : UTF-8 Plain Text
Duration                    : 2 h 16 min
Bit rate                    : 45 b/s
Count of elements           : 1381
Stream size                 : 45.8 KiB (0%)
Title                       : Sub English SRT
Language                    : English
Default                     : No
Forced                      : No

Text #6
ID                          : 9
Format                      : PGS
Muxing mode                 : zlib
Codec ID                    : S_HDMV/PGS
Codec ID/Info               : Picture based subtitle format used on BDs/HD-DVDs
Duration                    : 2 h 16 min
Bit rate                    : 29.7 kb/s
Count of elements           : 2762
Stream size                 : 29.0 MiB (1%)
Title                       : Sub English PGS
Language                    : English
Default                     : No
Forced                      : No




Download: cornfile
http://cornfile.com/osmq9caio681
Download: mekafile
meka รออัพ..*ระบบล่ม*