+ ตอบกลับกระทู้
สรุปผลการค้นหา 1 ถึง 3 จากทั้งหมด 3
  1. #1
    Administrators รูปส่วนตัว Duckload.us
    สมัครเมื่อ
    Dec 2010
    โพสต์
    118,603
    Thanks
    7
    Thanked 124,645 Times in 55,799 Posts

    Question [เกาหลี]-[* V2*] • Peninsula (2020) : ฝ่านรกซอมบี้คลั่ง • [เสียง: ไทยโรง + เกาหลี] • [บรรยาย: อังกฤษฝัง] • [* 720p HDCAM *]



    เมื่อเชื้อไวรัส ‘ซอมบี้’ มิได้สิ้นสุดที่รถไฟ KTX หรือเมืองปูซานเท่านั้น แต่มันแพร่ระบาดจนเกินการควบคุมได้ จนทำให้ทั้งผืนคาบสมุทรเกาหลีเต็มไปด้วยซอมบี้โหยเลื อด ซ่อนตัวตามมุมหลืบทุกซอกทุกเมือง ออกล่าเหยื่อทั้งกลางวันกลางคืน เพียงว่ากลางคืนพวกมันมองไม่เห็น ต้องอาศัยเสียงหรือแสงไฟ จะล่อให้กรูกันรุมขย้ำเป้าหมายอย่างบ้าคลั่ง ผู้คนที่ยังเหลือรอด ก็พากันลี้ภัยไปประเทศเพื่อนบ้าน ทิ้งให้เกาหลีกลายสภาพเป็นดินแดนดิสโทเปียมาถึง 4 ปี

    Format : Matroska
    Format version : Version 4
    File size : 2.80 GiB
    Duration : 1 h 51 min
    Overall bit rate : 3 613 kb/s
    Movie name : Train.to.Busan.2.2020.720p.KOREAN.HDCAM.x264~Mr.Ca [email protected]~

    Video
    ID : 1
    Format : AVC
    Format/Info : Advanced Video Codec
    Format profile : [email protected]
    Format settings : CABAC / 6 Ref Frames
    Format settings, CABAC : Yes
    Format settings, Reference : 6 frames
    Codec ID : V_MPEG4/ISO/AVC
    Duration : 1 h 51 min
    Bit rate mode : Variable
    Bit rate : 3 000 kb/s
    Maximum bit rate : 18.4 Mb/s
    Width : 1 280 pixels
    Height : 536 pixels
    Display aspect ratio : 2.40:1
    Frame rate mode : Constant
    Frame rate : 25.000 FPS
    Standard : Component
    Color space : YUV
    Chroma subsampling : 4:2:0
    Bit depth : 8 bits
    Scan type : Progressive
    Bits/(Pixel*Frame) : 0.175
    Stream size : 2.33 GiB (83%)
    Title : Train.to.Busan.2.2020.720p.KOREAN.HDCAM.x264~Mr.Ca [email protected]~
    Writing library : x264 core 155
    Encoding settings : cabac=1 / ref=6 / deblock=1:0:0 / analyse=0x3:0x113 / me=hex / subme=7 / psy=1 / psy_rd=1.00:0.00 / mixed_ref=1 / me_range=16 / chroma_me=1 / trellis=1 / 8x8dct=1 / cqm=1 / deadzone=21,11 / fast_pskip=1 / chroma_qp_offset=-2 / threads=17 / lookahead_threads=2 / sliced_threads=0 / slices=1 / nr=0 / decimate=1 / interlaced=0 / minigop=0 / stitchable=1 / constrained_intra=0 / bframes=3 / b_pyramid=0 / b_adapt=1 / b_bias=0 / direct=1 / weightb=1 / open_gop=1 / weightp=2 / keyint=250 / keyint_min=25 / scenecut=40 / intra_refresh=0 / rc_lookahead=40 / rc=abr / mbtree=1 / bitrate=3000 / ratetol=1.0 / qcomp=0.60 / qpmin=3 / qpmax=69 / qpstep=4 / vbv_maxrate=18400 / vbv_bufsize=18400 / nal_hrd=vbr / filler=0 / ip_ratio=1.40 / aq=1:1.00
    Language : Korean
    Default : Yes
    Forced : No
    Color range : Limited
    Color primaries : BT.709
    Transfer characteristics : BT.709
    Matrix coefficients : BT.709

    Audio #1
    ID : 2
    Format : AC-3
    Format/Info : Audio Coding 3
    Commercial name : Dolby Digital
    Codec ID : A_AC3
    Duration : 1 h 51 min
    Bit rate mode : Constant
    Bit rate : 384 kb/s
    Channel(s) : 2 channels
    Channel layout : L R
    Sampling rate : 48.0 kHz
    Frame rate : 31.250 FPS (1536 SPF)
    Compression mode : Lossy
    Stream size : 305 MiB (11%)
    Title : Thai Rong 2.0 @ 384 kb/s
    Language : Thai
    Service kind : Complete Main
    Default : Yes
    Forced : No

    Audio #2
    ID : 3
    Format : AC-3
    Format/Info : Audio Coding 3
    Commercial name : Dolby Digital
    Codec ID : A_AC3
    Duration : 1 h 51 min
    Bit rate mode : Constant
    Bit rate : 224 kb/s
    Channel(s) : 2 channels
    Channel layout : L R
    Sampling rate : 48.0 kHz
    Frame rate : 31.250 FPS (1536 SPF)
    Compression mode : Lossy
    Stream size : 178 MiB (6%)
    Title : Korean 2.0 @ 224 kb/s
    Language : Korean
    Service kind : Complete Main
    Default : No
    Forced : No




    Download: cornfile
    http://cornfile.com/qo2lh70jtqai
    Download: mekafile
    meka รออัพ..*ระบบล่ม*

  2. The Following User Says Thank You to Duckload.us For This Useful Post:

    Wesker_TOT (08-06-2020)

  3. #2
    Senior Member
    สมัครเมื่อ
    Dec 2013
    โพสต์
    2,380
    Thanks
    4,305
    Thanked 0 Times in 0 Posts
    ขอบคุณครับ...

  4. #3
    Senior Member
    สมัครเมื่อ
    Jun 2014
    โพสต์
    4,621
    Thanks
    0
    Thanked 0 Times in 0 Posts
    ขอบคุณครับ

+ ตอบกลับกระทู้

ข้อมูลกระทู้

Users Browsing this Thread

ในขณะนี้มี 1 ท่านดูกระทู้อยู่. (0 สมาชิกและ 1 ผู้เยี่ยมชม)

     

กฎการโพสต์ข้อความ

  • ท่าน ไม่สามารถ ตั้งกระทู้ใหม่ได้
  • ท่าน ไม่สามารถ ตอบกระทู้ได้
  • ท่าน ไม่สามารถ แนบไฟล์ได้
  • ท่าน ไม่สามารถ แก้ไขข้อความโพสต์ได้
  • BB code สถานะ เปิด
  • Smilies สถานะ เปิด
  • [IMG] สถานะ เปิด
  • HTML สถานะ ปิด