+ ตอบกลับกระทู้
สรุปผลการค้นหา 1 ถึง 3 จากทั้งหมด 3
  1. #1
    Administrators รูปส่วนตัว Duckload.us
    สมัครเมื่อ
    Dec 2010
    โพสต์
    118,603
    Thanks
    7
    Thanked 124,645 Times in 55,799 Posts

    Question [จีน]-Guardian of the Palace (2020) - [Soundtrack บรรยายไทย(แปล)+อังกฤษ] 1080p.x264



    tells the story of a time when a plague spreads in Heishun (Blackwater) Town during the warring warlords, and Tianya, Wunian and Jiujiu set out on a treasure hunt to find the Golden Moon Gem that cures the plague. The warlord Feng Pei Chuan was trailing them and tried to take the gems for himself, but Tianya and the others managed to subdue Feng Pei Chuan, reclaim the gems and save the people.

    Duration : 1 h 30 min
    Overall bit rate : 1 961 kb/s
    Encoded date : UTC 2020-08-04 14:42:27
    Writing application : mkvmerge v48.0.0 ('Fortress Around Your Heart') 64-bit
    Writing library : libebml v1.4.0 + libmatroska v1.6.0

    Video
    ID : 1
    Format : AVC
    Format/Info : Advanced Video Codec
    Format profile : [email protected]
    Format settings : CABAC / 4 Ref Frames
    Format settings, CABAC : Yes
    Format settings, Reference : 4 frames
    Codec ID : V_MPEG4/ISO/AVC
    Duration : 1 h 30 min
    Bit rate : 1 715 kb/s
    Width : 1 920 pixels
    Height : 816 pixels
    Display aspect ratio : 16:9
    Frame rate mode : Constant
    Frame rate : 24.000 FPS
    Color space : YUV
    Chroma subsampling : 4:2:0
    Bit depth : 8 bits
    Scan type : Progressive
    Bits/(Pixel*Frame) : 0.046
    Stream size : 1.08 GiB (87%)
    Writing library : x264 core 158
    Encoding settings : cabac=1 / ref=3 / deblock=1:0:0 / analyse=0x3:0x113 / me=hex / subme=7 / psy=1 / psy_rd=1.00:0.00 / mixed_ref=1 / me_range=16 / chroma_me=1 / trellis=1 / 8x8dct=1 / cqm=0 / deadzone=21,11 / fast_pskip=1 / chroma_qp_offset=-2 / threads=12 / lookahead_threads=2 / sliced_threads=0 / nr=0 / decimate=1 / interlaced=0 / bluray_compat=0 / constrained_intra=0 / bframes=3 / b_pyramid=2 / b_adapt=1 / b_bias=0 / direct=1 / weightb=1 / open_gop=0 / weightp=2 / keyint=250 / keyint_min=24 / scenecut=40 / intra_refresh=0 / rc_lookahead=40 / rc=crf / mbtree=1 / crf=25.0 / qcomp=0.60 / qpmin=0 / qpmax=69 / qpstep=4 / ip_ratio=1.40 / aq=1:1.00
    Default : Yes
    Forced : No

    Audio
    ID : 2
    Format : AC-3
    Format/Info : Audio Coding 3
    Commercial name : Dolby Digital
    Codec ID : A_AC3/BSID9
    Duration : 1 h 30 min
    Bit rate mode : Constant
    Bit rate : 224 kb/s
    Channel(s) : 6 channels
    Channel layout : L R C LFE Ls Rs
    Sampling rate : 24.0 kHz
    Frame rate : 31.250 FPS (768 SPF)
    Compression mode : Lossy
    Delay relative to video : 56 ms
    Stream size : 144 MiB (11%)
    Language : Chinese
    Service kind : Complete Main
    Default : Yes
    Forced : No

    Text #1
    ID : 3
    Format : PGS
    Muxing mode : zlib
    Codec ID : S_HDMV/PGS
    Codec ID/Info : Picture based subtitle format used on BDs/HD-DVDs
    Duration : 1 h 23 min
    Bit rate : 25.4 kb/s
    Count of elements : 1432
    Stream size : 15.2 MiB (1%)
    Language : English
    Default : No
    Forced : No

    Text #2
    ID : 4
    Format : PGS
    Muxing mode : zlib
    Codec ID : S_HDMV/PGS
    Codec ID/Info : Picture based subtitle format used on BDs/HD-DVDs
    Duration : 1 h 23 min
    Bit rate : 22.5 kb/s
    Count of elements : 1574
    Stream size : 13.4 MiB (1%)
    Language : Thai
    Default : Yes
    Forced : No





    Download: cornfile
    http://cornfile.com/dgku9onul8fz
    Download: mekafile
    meka รออัพ..*ระบบล่ม*

  2. #2
    Senior Member
    สมัครเมื่อ
    Oct 2013
    โพสต์
    1,756
    Thanks
    0
    Thanked 0 Times in 0 Posts
    ขอบคุณครัย

  3. #3
    Junior Member
    สมัครเมื่อ
    May 2011
    โพสต์
    24
    Thanks
    28
    Thanked 0 Times in 0 Posts
    How to play this video.

+ ตอบกลับกระทู้

ข้อมูลกระทู้

Users Browsing this Thread

ในขณะนี้มี 1 ท่านดูกระทู้อยู่. (0 สมาชิกและ 1 ผู้เยี่ยมชม)

     

กฎการโพสต์ข้อความ

  • ท่าน ไม่สามารถ ตั้งกระทู้ใหม่ได้
  • ท่าน ไม่สามารถ ตอบกระทู้ได้
  • ท่าน ไม่สามารถ แนบไฟล์ได้
  • ท่าน ไม่สามารถ แก้ไขข้อความโพสต์ได้
  • BB code สถานะ เปิด
  • Smilies สถานะ เปิด
  • [IMG] สถานะ เปิด
  • HTML สถานะ ปิด