+ ตอบกลับกระทู้
สรุปผลการค้นหา 1 ถึง 4 จากทั้งหมด 4
  1. #1
    Administrators รูปส่วนตัว Duckload.us
    สมัครเมื่อ
    Dec 2010
    โพสต์
    118,603
    Thanks
    7
    Thanked 124,644 Times in 55,799 Posts

    Question [ฝรั่ง]-[NETFLIX] The Magic School Bus Rides Again Kids In Space (2020) เมจิกสคูลบัสกับการเดินทางสู่ความสนุกในอวกาศ-WEB-DL.AC-3.1080p. [rip from Master]-[พากย์ไทย บรรยายไทย]




    เด็กๆ ก๊วนเมจิกสคูลบัสเดินทางพุ่งทะยานสู่วงโคจรเพื่อไปที ่สถานีอวกาศนานาชาติ แต่กลับต้องหาทางหลบหนีจากสัตว์ประหลาดขนาดมหึมา


    Format : Matroska
    Format version : Version 4
    File size : 1.84 GiB
    Duration : 46 min 13 s
    Overall bit rate mode : Variable
    Overall bit rate : 5 702 kb/s
    Encoded date : UTC 2020-08-08 14:01:20
    Writing application : mkvmerge v49.0.0 ('Sick Of Losing Soulmates') 64-bit
    Writing library : libebml v1.4.0 + libmatroska v1.6.1

    Video
    ID : 1
    Format : AVC
    Format/Info : Advanced Video Codec
    Format profile : [email protected]
    Format settings : CABAC / 1 Ref Frames
    Format settings, CABAC : Yes
    Format settings, Reference : 1 frame
    Codec ID : V_MPEG4/ISO/AVC
    Duration : 46 min 13 s
    Bit rate mode : Variable
    Bit rate : 4 348 kb/s
    Maximum bit rate : 13.5 Mb/s
    Width : 1 920 pixels
    Height : 1 080 pixels
    Display aspect ratio : 16:9
    Frame rate mode : Constant
    Frame rate : 23.976 (24000/1001) FPS
    Color space : YUV
    Chroma subsampling : 4:2:0
    Bit depth : 8 bits
    Scan type : Progressive
    Bits/(Pixel*Frame) : 0.087
    Stream size : 1.40 GiB (76%)
    Language : English
    Default : Yes
    Forced : No

    Audio #1
    ID : 2
    Format : E-AC-3
    Format/Info : Enhanced AC-3
    Commercial name : Dolby Digital Plus
    Codec ID : A_EAC3
    Duration : 46 min 13 s
    Bit rate mode : Constant
    Bit rate : 640 kb/s
    Channel(s) : 6 channels
    Channel layout : L R C LFE Ls Rs
    Sampling rate : 48.0 kHz
    Frame rate : 31.250 FPS (1536 SPF)
    Compression mode : Lossy
    Delay relative to video : -83 ms
    Stream size : 212 MiB (11%)
    Title : AC-3 English
    Language : English
    Service kind : Complete Main
    Default : Yes
    Forced : No

    Audio #2
    ID : 3
    Format : E-AC-3
    Format/Info : Enhanced AC-3
    Commercial name : Dolby Digital Plus
    Codec ID : A_EAC3
    Duration : 46 min 13 s
    Bit rate mode : Constant
    Bit rate : 640 kb/s
    Channel(s) : 6 channels
    Channel layout : L R C LFE Ls Rs
    Sampling rate : 48.0 kHz
    Frame rate : 31.250 FPS (1536 SPF)
    Compression mode : Lossy
    Delay relative to video : -83 ms
    Stream size : 212 MiB (11%)
    Title : AC-3 Thai
    Language : Thai
    Service kind : Complete Main
    Default : No
    Forced : No

    Text #1
    ID : 4
    Format : VobSub
    Muxing mode : zlib
    Codec ID : S_VOBSUB
    Codec ID/Info : Picture based subtitle format used on DVDs
    Duration : 44 min 4 s
    Bit rate : 16.0 kb/s
    Count of elements : 764
    Stream size : 5.03 MiB (0%)
    Title : Sub Thai 1080p
    Language : Thai
    Default : No
    Forced : No

    Text #2
    ID : 5
    Format : UTF-8
    Codec ID : S_TEXT/UTF8
    Codec ID/Info : UTF-8 Plain Text
    Duration : 44 min 4 s
    Bit rate : 182 b/s
    Count of elements : 764
    Stream size : 59.0 KiB (0%)
    Title : Sub Thai SRT
    Language : Thai
    Default : No
    Forced : No

    Text #3
    ID : 6
    Format : PGS
    Muxing mode : zlib
    Codec ID : S_HDMV/PGS
    Codec ID/Info : Picture based subtitle format used on BDs/HD-DVDs
    Duration : 44 min 4 s
    Bit rate : 52.5 kb/s
    Count of elements : 1528
    Stream size : 16.5 MiB (1%)
    Title : Sub Thai PGS
    Language : Thai
    Default : Yes
    Forced : No

    Text #4
    ID : 7
    Format : VobSub
    Muxing mode : zlib
    Codec ID : S_VOBSUB
    Codec ID/Info : Picture based subtitle format used on DVDs
    Duration : 44 min 2 s
    Bit rate : 17.7 kb/s
    Count of elements : 916
    Stream size : 5.58 MiB (0%)
    Title : Sub English 1080p
    Language : English
    Default : No
    Forced : No

    Text #5
    ID : 8
    Format : UTF-8
    Codec ID : S_TEXT/UTF8
    Codec ID/Info : UTF-8 Plain Text
    Duration : 44 min 2 s
    Bit rate : 90 b/s
    Count of elements : 916
    Stream size : 29.0 KiB (0%)
    Title : Sub English SRT
    Language : English
    Default : No
    Forced : No

    Text #6
    ID : 9
    Format : PGS
    Muxing mode : zlib
    Codec ID : S_HDMV/PGS
    Codec ID/Info : Picture based subtitle format used on BDs/HD-DVDs
    Duration : 44 min 2 s
    Bit rate : 59.1 kb/s
    Count of elements : 1832
    Stream size : 18.6 MiB (1%)
    Title : Sub English PGS
    Language : English
    Default : No
    Forced : No





    Download: cornfile
    http://cornfile.com/3vfbfxy0voqr
    Download: mekafile
    meka รออัพ..*ระบบล่ม*

  2. The Following User Says Thank You to Duckload.us For This Useful Post:

    gaszolineskywalker (08-16-2020)

  3. #2
    Senior Member
    สมัครเมื่อ
    Jul 2013
    โพสต์
    1,165
    Thanks
    0
    Thanked 0 Times in 0 Posts
    ขอบคุณครัลบ

  4. #3
    Senior Member
    สมัครเมื่อ
    Oct 2012
    โพสต์
    1,293
    Thanks
    2,221
    Thanked 0 Times in 0 Posts
    ขอบคุณครับ

  5. #4
    Senior Member
    สมัครเมื่อ
    Jul 2013
    โพสต์
    1,165
    Thanks
    0
    Thanked 0 Times in 0 Posts
    ขอบคุณครับผม

+ ตอบกลับกระทู้

ข้อมูลกระทู้

Users Browsing this Thread

ในขณะนี้มี 1 ท่านดูกระทู้อยู่. (0 สมาชิกและ 1 ผู้เยี่ยมชม)

     

กฎการโพสต์ข้อความ

  • ท่าน ไม่สามารถ ตั้งกระทู้ใหม่ได้
  • ท่าน ไม่สามารถ ตอบกระทู้ได้
  • ท่าน ไม่สามารถ แนบไฟล์ได้
  • ท่าน ไม่สามารถ แก้ไขข้อความโพสต์ได้
  • BB code สถานะ เปิด
  • Smilies สถานะ เปิด
  • [IMG] สถานะ เปิด
  • HTML สถานะ ปิด