+ ตอบกลับกระทู้
สรุปผลการค้นหา 1 ถึง 6 จากทั้งหมด 6
  1. #1
    Administrators รูปส่วนตัว Duckload.us
    สมัครเมื่อ
    Dec 2010
    โพสต์
    122,453
    Thanks
    7
    Thanked 127,759 Times in 56,934 Posts

    Question [ฝรั่ง]-Black.Water.Abyss.2020.[มหันตภัยน้ำจืด ]1080p. DL.DDP5.1.H.264-UssiMI (1).mkv -Remux.H.264.1080p. [Rip]-[Soundtrack บรรยายไทย (แปล)]



    เอริคและเจนนิเฟอร์คู่รักสายผจญภัยหลอกล่อโยลันดาและ วิคเตอร์เพื่อนของ

    พวกเขาเข้าร่วมสำรวจถ้ำที่ไม่เคยมีใครเคยไปมาก่อนในป ่าลึกทางเหนือของออสเตรเลียพร้อมกับความช่วยเหลือจาก ไกด์สำรวจถ้ำที่เอาแน่เอานอนไม่ได้อย่างแคช

    นักสำรวจถ้ำทั้ง5 คน เดินทางมาถึงปากถ้ำสุดลึก ขณะเดียวกันพายุก็กำลังตั้งเค้าอยู่ แต่กลับไม่มีใครสนใจ เพราะทุกคนเชื่อมั่นว่าจะปลอดภัยอยู่ภายในถ้ำใต้ดินแ ห่งนี้ แต่แล้วเมื่อฝนกระหน่ำลงมา น้ำเริ่มท่วมภายในถ้ำ ความสับสนและตึงเครียดจึงเกิดขึ้นกับพวกเขาอย่างรวดเ ร็ว พวกเขาพยายามหาทางออกและเอาชีวิตให้รอด แต่แล้วเมื่อความกังวลกับการเอาตัวรอดจากระดับน้ำที่ เพิ่มสูง และอากาศที่อับชื้น กลับกลายเป็นสิ่งที่พวกเขากังวลน้อยที่สุด นั่นเพราะพวกเขาค้นพบว่าพายุได้นำพาเหล่านักล่าหิวกร ะหายมายังถ้ำแห่งนี้ด้วย...

    1 ชม. 38 นาที | แอ็คชั่น , ดราม่า , สยองขวัญ | 30 กรกฎาคม 2020 (ออสเตรเลีย)

    Format : Matroska
    Format version : Version 4
    File size : 5.77 GiB
    Duration : 1 h 38 min
    Overall bit rate : 8 410 kb/s
    Encoded date : UTC 2020-08-08 06:42:51
    Writing application : mkvmerge v49.0.0 ('Sick Of Losing Soulmates') 64-bit
    Writing library : libebml v1.4.0 + libmatroska v1.6.1

    Video
    ID : 1
    Format : AVC
    Format/Info : Advanced Video Codec
    Format profile : [email protected]
    Format settings : CABAC / 4 Ref Frames
    Format settings, CABAC : Yes
    Format settings, Reference frames : 4 frames
    Codec ID : V_MPEG4/ISO/AVC
    Duration : 1 h 38 min
    Bit rate mode : Constant
    Bit rate : 7 768 kb/s
    Nominal bit rate : 10 000 kb/s
    Width : 1 920 pixels
    Height : 800 pixels
    Display aspect ratio : 2.40:1
    Frame rate mode : Constant
    Frame rate : 23.976 (24000/1001) FPS
    Color space : YUV
    Chroma subsampling : 4:2:0
    Bit depth : 8 bits
    Scan type : Progressive
    Bits/(Pixel*Frame) : 0.211
    Stream size : 5.33 GiB (92%)
    Default : Yes
    Forced : No
    Color range : Limited
    Color primaries : BT.709
    Transfer characteristics : BT.709
    Matrix coefficients : BT.709

    Audio
    ID : 2
    Format : E-AC-3
    Format/Info : Enhanced AC-3
    Commercial name : Dolby Digital Plus
    Codec ID : A_EAC3
    Duration : 1 h 38 min
    Bit rate mode : Constant
    Bit rate : 640 kb/s
    Channel(s) : 6 channels
    Channel layout : L R C LFE Ls Rs
    Sampling rate : 48.0 kHz
    Frame rate : 31.250 FPS (1536 SPF)
    Compression mode : Lossy
    Stream size : 450 MiB (8%)
    Language : English
    Service kind : Complete Main
    Default : Yes
    Forced : No

    Text #1
    ID : 3
    Format : UTF-8
    Codec ID : S_TEXT/UTF8
    Codec ID/Info : UTF-8 Plain Text
    Duration : 1 h 33 min
    Bit rate : 24 b/s
    Count of elements : 785
    Stream size : 16.8 KiB (0%)
    Language : English
    Default : No
    Forced : No

    Text #2
    ID : 4
    Format : UTF-8
    Codec ID : S_TEXT/UTF8
    Codec ID/Info : UTF-8 Plain Text
    Duration : 1 h 33 min
    Bit rate : 61 b/s
    Count of elements : 787
    Stream size : 42.3 KiB (0%)
    Language : Thai
    Default : Yes
    Forced : No







    Download: cornfile
    http://cornfile.com/wqxlbcp25l29
    Download: mekafile
    meka รออัพ..*ระบบล่ม*

  2. The Following 5 Users Say Thank You to Duckload.us For This Useful Post:

    aragon21 (08-10-2020), jackjangri (08-15-2020), NaiWan (08-13-2020), noi54 (08-13-2020), Wesker_TOT (08-10-2020)

  3. #2
    Senior Member รูปส่วนตัว ksurachai
    สมัครเมื่อ
    Nov 2019
    โพสต์
    230
    Thanks
    101
    Thanked 0 Times in 0 Posts
    โหลดไม่ได้ครับ สงสัยคิวยาว

  4. #3
    Junior Member
    สมัครเมื่อ
    Aug 2020
    โพสต์
    1
    Thanks
    0
    Thanked 0 Times in 0 Posts
    เติมVIP 1วันแอด แต่โหลดดูหนังไม่ได้ทำไงคับมันขึ้นเสีย VIP ฟรีสิคับแอดมิน

    ERROR: Gateway Timeout
    While trying to retrieve the URL http://cornfile.com:182/d/wjotpwwdvh...iMI%20(1).mkv:

    Connection refused
    Your cache administrator is webmaster.

    Generated Sun, 09 Aug 2020 12:10:24 GMT by ::ffff:192.168.21.51 (Mikrotik HttpProxy)

  5. #4
    Senior Member
    สมัครเมื่อ
    Jul 2013
    โพสต์
    1,643
    Thanks
    0
    Thanked 0 Times in 0 Posts
    โหลดได้แล้ว ขอบคุณครับ

  6. #5
    Senior Member
    สมัครเมื่อ
    Dec 2013
    โพสต์
    2,545
    Thanks
    4,467
    Thanked 0 Times in 0 Posts
    ขอบคุณนะครับ...

  7. #6
    Senior Member รูปส่วนตัว ksurachai
    สมัครเมื่อ
    Nov 2019
    โพสต์
    230
    Thanks
    101
    Thanked 0 Times in 0 Posts
    ได้แล้วครับ ขอบคุณครับ

+ ตอบกลับกระทู้

ข้อมูลกระทู้

Users Browsing this Thread

ในขณะนี้มี 1 ท่านดูกระทู้อยู่. (0 สมาชิกและ 1 ผู้เยี่ยมชม)

     

กฎการโพสต์ข้อความ

  • ท่าน ไม่สามารถ ตั้งกระทู้ใหม่ได้
  • ท่าน ไม่สามารถ ตอบกระทู้ได้
  • ท่าน ไม่สามารถ แนบไฟล์ได้
  • ท่าน ไม่สามารถ แก้ไขข้อความโพสต์ได้
  • BB code สถานะ เปิด
  • Smilies สถานะ เปิด
  • [IMG] สถานะ เปิด
  • HTML สถานะ ปิด