+ ตอบกลับกระทู้
สรุปผลการค้นหา 1 ถึง 4 จากทั้งหมด 4
  1. #1
    Administrators รูปส่วนตัว Duckload.us
    สมัครเมื่อ
    Dec 2010
    โพสต์
    118,603
    Thanks
    7
    Thanked 124,646 Times in 55,799 Posts

    Thumbs up [เกาหลี]-[* NETFLIX *] Its Okay to Not Be Okay (2020) : เรื่องหัวใจไม่ไหวอย่าฝืน Season 1 Complete [เสียงพากย์เกาหลี] [บรรยายไทย + อังกฤษ] [ซับไทย Master From Netflix + ซับ SRT , PGS]-WEB-DL.H.264.1080p.



    It's Okay to Not Be Okay เรื่องหัวใจไม่ไหวอย่าฝืน

    เรื่องโรแมนติกที่ไม่ธรรมดาระหว่างคนสองคนที่ลงเอยด้ วยการเยียวยาบาดแผลทางจิตใจและความรู้สึกให้กันและกั น มุนคังแท (คิมซูฮยอน) ทำงานที่แผนกผู้ป่วยจิตเวช โดยหน้าที่ของเขาคือการจดบันทึกสภาพของผู้ป่วย เพื่อรับมือกับสถานการณ์ที่ไม่คาดคิด เช่น เมื่อผู้ป่วยอาละวาดหรือหลบหนี

    คังแทเป็นผู้ชายที่เพียบพร้อมด้วยสารพัดคุณสมบัติ ไม่ว่าจะเป็น หน้าตาอันหล่อเหลา รูปร่างที่ดึงดูด ความเฉลียวฉลาด ความสามารถในการเห็นอกเห็นใจผู้อื่น ความอดทน ไปจนถึงปฏิกิริยาการตอบสนองอันฉับไว และอื่น ๆ อีกมากมายที่จะทำให้เขากลายเป็นหนุ่มในฝันของสาว ๆ ได้ ทว่าชีวิตของเขากลับต้องทุ่มเทให้กับการดูแลเอาใจใส่ พี่ชาย มุนซังแท (โอจองเซ) ที่อายุห่างกัน 8 ปี และป่วยเป็นออทิสติก

    แต่แล้วโชคชะตาก็นำพา มุนคังแท มาพบกับหญิงสาวแสนพิเศษ โกมุนยอง (ซอเยจี) นักเขียนวรรณกรรมเยาวชนชื่อดัง ที่มีนิสัยเห็นแก่ตัว คิดถึงแต่ตัวเองแบบขั้นสุด ทั้งยังเย่อหยิ่งและหยาบคาย ใครกันจะคิดว่าผู้หญิงที่ไม่เคยรู้สึกรู้สาอะไรเลยเร ื่องความรัก และน่าจะไม่มีวันรู้สึกด้วย จะตกหลุมรักคนธรรมดา ๆ จนหัวปักหัวปำได้ เรื่องราวของเขาและเธอจะลงเอยอย่างไร ติดตามชมได้ในซีรีส์ It's Okay to Not Be Okay เรื่องหัวใจไม่ไหวอย่าฝืน[/SIZE]


    Format : Matroska
    Format version : Version 4
    File size : 1.92 GiB
    Duration : 1 h 14 min
    Overall bit rate : 3 696 kb/s
    Movie name : Its.Okay.to.Not.Be.Okay.2020.S01E01.1080p.NF.WEB-DL.DDP2.0.x264_SkiesIT
    Encoded date : UTC 2020-07-27 09:16:51
    Writing application : mkvmerge v48.0.0 ('Fortress Around Your Heart') 64-bit
    Writing library : libebml v1.4.0 + libmatroska v1.6.0

    Video
    ID : 1
    Format : AVC
    Format/Info : Advanced Video Codec
    Format profile : [email protected]
    Format settings : CABAC / 5 Ref Frames
    Format settings, CABAC : Yes
    Format settings, Reference frames : 5 frames
    Codec ID : V_MPEG4/ISO/AVC
    Duration : 1 h 14 min
    Bit rate : 3 500 kb/s
    Width : 1 920 pixels
    Height : 1 080 pixels
    Display aspect ratio : 16:9
    Frame rate mode : Variable
    Frame rate : 23.976 FPS
    Color space : YUV
    Chroma subsampling : 4:2:0
    Bit depth : 8 bits
    Scan type : Progressive
    Bits/(Pixel*Frame) : 0.070
    Stream size : 1.81 GiB (94%)
    Title : Its.Okay.to.Not.Be.Okay.2020.S01E01.1080p.NF.WEB-DL.DDP2.0.x264_SkiesIT
    Writing library : x264 core 157
    Encoding settings : cabac=1 / ref=5 / deblock=1:0:0 / analyse=0x3:0x113 / me=hex / subme=8 / psy=1 / psy_rd=1.00:0.00 / mixed_ref=1 / me_range=16 / chroma_me=1 / trellis=2 / 8x8dct=1 / cqm=0 / deadzone=21,11 / fast_pskip=1 / chroma_qp_offset=-2 / threads=9 / lookahead_threads=1 / sliced_threads=0 / nr=0 / decimate=1 / interlaced=0 / bluray_compat=0 / constrained_intra=0 / bframes=3 / b_pyramid=2 / b_adapt=1 / b_bias=0 / direct=3 / weightb=1 / open_gop=0 / weightp=2 / keyint=250 / keyint_min=23 / scenecut=40 / intra_refresh=0 / rc_lookahead=40 / rc=2pass / mbtree=1 / bitrate=3500 / ratetol=1.0 / qcomp=0.60 / qpmin=0 / qpmax=69 / qpstep=4 / cplxblur=20.0 / qblur=0.5 / vbv_maxrate=5250 / vbv_bufsize=7000 / nal_hrd=none / filler=0 / ip_ratio=1.40 / aq=1:1.00
    Language : Korean
    Default : Yes
    Forced : No

    Audio
    ID : 2
    Format : E-AC-3
    Format/Info : Enhanced AC-3
    Commercial name : Dolby Digital Plus
    Codec ID : A_EAC3
    Duration : 1 h 14 min
    Bit rate mode : Constant
    Bit rate : 128 kb/s
    Channel(s) : 2 channels
    Channel layout : L R
    Sampling rate : 48.0 kHz
    Frame rate : 31.250 FPS (1536 SPF)
    Compression mode : Lossy
    Stream size : 68.2 MiB (3%)
    Language : Korean
    Service kind : Complete Main
    Default : Yes
    Forced : No

    Text #1
    ID : 3
    Format : UTF-8
    Codec ID : S_TEXT/UTF8
    Codec ID/Info : UTF-8 Plain Text
    Duration : 1 h 14 min
    Bit rate : 131 b/s
    Count of elements : 939
    Stream size : 71.5 KiB (0%)
    Title : Thai SRT From Netflix
    Language : Thai
    Default : Yes
    Forced : No

    Text #2
    ID : 4
    Format : UTF-8
    Codec ID : S_TEXT/UTF8
    Codec ID/Info : UTF-8 Plain Text
    Duration : 1 h 13 min
    Bit rate : 56 b/s
    Count of elements : 886
    Stream size : 30.2 KiB (0%)
    Title : English SRT
    Language : English
    Default : No
    Forced : No

    Text #3
    ID : 5
    Format : PGS
    Muxing mode : zlib
    Codec ID : S_HDMV/PGS
    Codec ID/Info : Picture based subtitle format used on BDs/HD-DVDs
    Duration : 1 h 14 min
    Bit rate : 40.0 kb/s
    Count of elements : 1878
    Stream size : 21.2 MiB (1%)
    Title : Thai PGS [Angsana]
    Language : Thai
    Default : No
    Forced : No

    Text #4
    ID : 6
    Format : PGS
    Muxing mode : zlib
    Codec ID : S_HDMV/PGS
    Codec ID/Info : Picture based subtitle format used on BDs/HD-DVDs
    Duration : 1 h 14 min
    Bit rate : 40.0 kb/s
    Count of elements : 1878
    Stream size : 21.2 MiB (1%)
    Title : Thai PGS [Angsana Yellow]
    Language : Thai
    Default : No
    Forced : No

    Text #5
    ID : 7
    Format : PGS
    Muxing mode : zlib
    Codec ID : S_HDMV/PGS
    Codec ID/Info : Picture based subtitle format used on BDs/HD-DVDs
    Duration : 1 h 14 min
    Bit rate : 39.4 kb/s
    Count of elements : 1878
    Stream size : 20.9 MiB (1%)
    Title : Thai PGS [Sarabun]
    Language : Thai
    Default : No
    Forced : No

    Text #6
    ID : 8
    Format : PGS
    Muxing mode : zlib
    Codec ID : S_HDMV/PGS
    Codec ID/Info : Picture based subtitle format used on BDs/HD-DVDs
    Duration : 1 h 14 min
    Bit rate : 39.4 kb/s
    Count of elements : 1878
    Stream size : 20.9 MiB (1%)
    Title : Thai PGS [Sarabun Yellow]
    Language : Thai
    Default : No
    Forced : No

    Text #7
    ID : 9
    Format : PGS
    Muxing mode : zlib
    Codec ID : S_HDMV/PGS
    Codec ID/Info : Picture based subtitle format used on BDs/HD-DVDs
    Duration : 1 h 13 min
    Bit rate : 33.4 kb/s
    Count of elements : 1772
    Stream size : 17.5 MiB (1%)
    Title : English PGS
    Language : English
    Default : No
    Forced : No










    Download: filecondo
    1 http://www.filecondo.com/dl.php?f=uf6d111K54rO
    2 http://www.filecondo.com/dl.php?f=D2f0431K54sI
    3 http://www.filecondo.com/dl.php?f=G509c11K54tI
    4 http://www.filecondo.com/dl.php?f=ib49431K54uA
    5 http://www.filecondo.com/dl.php?f=V6654e1K54vH
    6 http://www.filecondo.com/dl.php?f=z5370e1K54wz
    7 http://www.filecondo.com/dl.php?f=d40e6d1K54xy
    8 http://www.filecondo.com/dl.php?f=h949131K54yx
    9 http://www.filecondo.com/dl.php?f=Kd892d1K54zr
    10 http://www.filecondo.com/dl.php?f=Ufc0fa1K54At
    11 http://www.filecondo.com/dl.php?f=T1719e1K54Bq
    12 http://www.filecondo.com/dl.php?f=E111a31K54Cm
    13 http://www.filecondo.com/dl.php?f=H15f4b1K54Do
    14 http://www.filecondo.com/dl.php?f=I9a5101K54Ei
    15 http://www.filecondo.com/dl.php?f=e7c0dd1K54Fi
    16 http://www.filecondo.com/dl.php?f=u3d0981K54Gg

    Download: cornfile
    Its.Okay.to.Not.Be.Okay.2020.S01E01.1080p.NF.WEB-DL.DDP2.0.x264_SkiesIT.mkv - 1.9 GB
    Its.Okay.to.Not.Be.Okay.2020.S01E02.1080p.NF.WEB-DL.DDP2.0.x264_SkiesIT.mkv - 1.9 GB
    Its.Okay.to.Not.Be.Okay.2020.S01E03.1080p.NF.WEB-DL.DDP2.0.x264_SkiesIT.mkv - 2.0 GB
    Its.Okay.to.Not.Be.Okay.2020.S01E04.1080p.NF.WEB-DL.DDP2.0.x264_SkiesIT.mkv - 1.8 GB
    Its.Okay.to.Not.Be.Okay.2020.S01E05.1080p.NF.WEB-DL.DDP2.0.x264_SkiesIT.mkv - 1.9 GB
    Its.Okay.to.Not.Be.Okay.2020.S01E06.1080p.NF.WEB-DL.DDP2.0.x264_SkiesIT.mkv - 1.8 GB
    Its.Okay.to.Not.Be.Okay.2020.S01E07.1080p.NF.WEB-DL.DDP2.0.x264_SkiesIT.mkv - 1.9 GB
    Its.Okay.to.Not.Be.Okay.2020.S01E08.1080p.NF.WEB-DL.DDP2.0.x264_SkiesIT.mkv - 2.0 GB
    Its.Okay.to.Not.Be.Okay.2020.S01E09.1080p.NF.WEB-DL.DDP2.0.x264_SkiesIT.mkv - 1.9 GB
    Its.Okay.to.Not.Be.Okay.2020.S01E10.1080p.NF.WEB-DL.DDP2.0.x264_SkiesIT.mkv - 2.1 GB
    Its.Okay.to.Not.Be.Okay.2020.S01E11.1080p.NF.WEB-DL.DDP2.0.x264_SkiesIT.mkv - 2.2 GB
    Its.Okay.to.Not.Be.Okay.2020.S01E12.1080p.NF.WEB-DL.DDP2.0.x264_SkiesIT.mkv - 1.9 GB
    Its.Okay.to.Not.Be.Okay.2020.S01E13.1080p.NF.WEB-DL.DDP2.0.x264_SkiesIT.mkv - 2.1 GB
    Its.Okay.to.Not.Be.Okay.2020.S01E14.1080p.NF.WEB-DL.DDP2.0.x264_SkiesIT.mkv - 2.0 GB
    Its.Okay.to.Not.Be.Okay.2020.S01E15.1080p.NF.WEB-DL.DDP2.0.x264_SkiesIT.mkv - 2.0 GB
    Its.Okay.to.Not.Be.Okay.2020.S01E16.1080p.NF.WEB-DL.DDP2.0.x264_SkiesIT.mkv - 2.1 GB

  2. The Following 5 Users Say Thank You to Duckload.us For This Useful Post:

    F2UMaH6398 (08-10-2020), jackjangri (08-15-2020), kinnopi (08-11-2020), rinrinton (08-11-2020), Wesker_TOT (08-11-2020)

  3. #2
    Senior Member
    สมัครเมื่อ
    Jul 2013
    โพสต์
    1,165
    Thanks
    0
    Thanked 0 Times in 0 Posts
    ขอบคุณครับ

  4. #3
    Senior Member
    สมัครเมื่อ
    Dec 2013
    โพสต์
    2,380
    Thanks
    4,305
    Thanked 0 Times in 0 Posts
    ขอบคุณนะครับ...

  5. #4
    Senior Member
    สมัครเมื่อ
    May 2012
    โพสต์
    514
    Thanks
    0
    Thanked 0 Times in 0 Posts
    ขอบคุณครับ

+ ตอบกลับกระทู้

ข้อมูลกระทู้

Users Browsing this Thread

ในขณะนี้มี 1 ท่านดูกระทู้อยู่. (0 สมาชิกและ 1 ผู้เยี่ยมชม)

     

กฎการโพสต์ข้อความ

  • ท่าน ไม่สามารถ ตั้งกระทู้ใหม่ได้
  • ท่าน ไม่สามารถ ตอบกระทู้ได้
  • ท่าน ไม่สามารถ แนบไฟล์ได้
  • ท่าน ไม่สามารถ แก้ไขข้อความโพสต์ได้
  • BB code สถานะ เปิด
  • Smilies สถานะ เปิด
  • [IMG] สถานะ เปิด
  • HTML สถานะ ปิด