+ ตอบกลับกระทู้
สรุปผลการค้นหา 1 ถึง 3 จากทั้งหมด 3
  1. #1
    Administrators รูปส่วนตัว Duckload.us
    สมัครเมื่อ
    Dec 2010
    โพสต์
    118,373
    Thanks
    7
    Thanked 124,444 Times in 55,690 Posts

    Question [ฝรั่ง]-[* ใหม่ร้อนๆ!! NETFLIX *] Project Power (2020) : โปรเจคท์ พาวเวอร์ พลังลับพลังฮีโร่ [เสียงไทย 5.1 + เสียงอังกฤษ 5.1 Atmos] [บรรยายไทย + อังกฤษ] [เสียง + ซับไทย Master From Netflix + ซับ SRT , PGS]-WEB-DL.H.264.1080p



    เรื่องราวทั้งหมดเริ่มต้นขึ้นที่ เมืองนิวออร์ลีนส์ รัฐหลุยส์เซียน่า ประเทศสหรัฐอเมริกา เมืองที่ไม่มีวันหลับใหล เมืองที่เข้าไปเกี่ยวข้องกับประวัติศาสตร์ของมนุษย์ใ นยุคสมัยใหม่มากมาย แต่ ณ เวลานี้ มีกลุ่มคนบางกลุ่มได้ออกตระเวนขายยาลึกลับตัวใหม่ ที่สามารถปลดล็อกพลังความสามารถอันสุดยอดที่มีอยู่ใน ตัวของแต่ละคนออกมา เช่น ล่องหนหายตัวได้, หนังเหนียวยิงแทงไม่เข้า, เคลื่อนไหวได้รวดเร็วเหนือมนุษย์ ฯลฯ โดยพลังความสามารถเหล่านี้แต่ละคนจะได้รับแตกต่างกัน ไป ที่สำคัญมันมีเวลาแค่ 5 นาที แต่มีปัญหาอยู่อย่างเดียวคือไม่มีทางรู้เลยว่าพลังนั ้นคืออะไรจนกว่าจะกินยานั้นเข้าไป บางคนกินเข้าไปเม็ดเดียวก็ตายได้

    ยาตัวนี้แพร่กระจายไปทั่ว เป็นเหตุให้อัตราการก่ออาชญากรรมภายในเมืองพุ่งสูงขึ ้นอย่างที่ไม่เคยเกิดขึ้นมาก่อน และนี่เองทำให้ทั้ง 3 คน ซึ่งประกอบไปด้วย นายตำรวจของเมือง (รับบทโดย โจเซฟ กอร์ดอน-เลวิตต์), อดีตทหารที่เก็บซ่อนความแค้นที่รุนแรงไว้ในใจ (เจมี่ ฟ็อกซ์) และดีลเลอร์ค้ายาสาววัยรุ่น (โดมินิก ฟิชแบ็ค) ต้องร่วมมือกันเพื่อสืบหาต้นตอทั้งหมดนี้ให้เจอ

    และเมื่อทั้งสามทำการสืบไปเรื่อย ๆ ก็พบว่า การแพร่กระจายของยาในหมู่อาชญากรนั้น เป็นแค่ส่วนหนึ่งของการทดลองใช้ยากับมนุษย์ เพื่อพัฒนาให้ Project Power สมบูรณ์ ในขณะเดียวกันนั้น อดีตทหาร (เจมี่ ฟ็อกซ์) กลับมีบางสิ่งที่ซ่อนอยู่ คือ ลูกสาวของเขาเองเป็นคนคิดสูตรยาซูเปอร์พาวเวอร์นี้ขึ ้นมา และถูกพวกคนร้ายจับตัวไป ทำให้เขาจำเป็นต้องตามล่าต้นตอทั้งหมดนี้ให้เจอ และยอมเสี่ยงกินยานั้นเพื่อตามหากลุ่มวายร้ายที่ผลิต ยานี้ขึ้นมาให้ได้


    Format : Matroska
    Format version : Version 4
    File size : 5.70 GiB
    Duration : 1 h 53 min
    Overall bit rate mode : Variable
    Overall bit rate : 7 209 kb/s
    Movie name : Project.Power.2020.1080p.NF.WEB-DL.DDP5.1.Atmos.x264_SkiesIT
    Encoded date : UTC 2020-08-14 08:07:17
    Writing application : mkvmerge v49.0.0 ('Sick Of Losing Soulmates') 64-bit
    Writing library : libebml v1.4.0 + libmatroska v1.6.1

    Video
    ID : 1
    Format : AVC
    Format/Info : Advanced Video Codec
    Format profile : [email protected]
    Format settings : CABAC / 3 Ref Frames
    Format settings, CABAC : Yes
    Format settings, Reference frames : 3 frames
    Codec ID : V_MPEG4/ISO/AVC
    Duration : 1 h 53 min
    Bit rate mode : Variable
    Bit rate : 5 800 kb/s
    Maximum bit rate : 8 700 kb/s
    Width : 1 920 pixels
    Height : 1 080 pixels
    Display aspect ratio : 16:9
    Frame rate mode : Constant
    Frame rate : 24.000 FPS
    Color space : YUV
    Chroma subsampling : 4:2:0
    Bit depth : 8 bits
    Scan type : Progressive
    Bits/(Pixel*Frame) : 0.117
    Stream size : 4.53 GiB (79%)
    Title : Project.Power.2020.1080p.NF.WEB-DL.DDP5.1.Atmos.x264_SkiesIT
    Writing library : x264 core 148 r2722 1b0121b
    Encoding settings : cabac=1 / ref=3 / deblock=1:0:0 / analyse=0x1:0x111 / me=umh / subme=10 / psy=1 / psy_rd=1.00:0.00 / mixed_ref=1 / me_range=24 / chroma_me=1 / trellis=2 / 8x8dct=0 / cqm=0 / deadzone=21,11 / fast_pskip=1 / chroma_qp_offset=-2 / threads=8 / lookahead_threads=1 / sliced_threads=0 / nr=0 / decimate=1 / interlaced=0 / bluray_compat=0 / stitchable=1 / constrained_intra=0 / bframes=2 / b_pyramid=0 / b_adapt=2 / b_bias=0 / direct=3 / weightb=1 / open_gop=0 / weightp=2 / keyint=250 / keyint_min=24 / scenecut=0 / intra_refresh=0 / rc_lookahead=48 / rc=2pass / mbtree=1 / bitrate=5800 / ratetol=1.0 / qcomp=0.50 / qpmin=6 / qpmax=51 / qpstep=4 / cplxblur=20.0 / qblur=0.5 / vbv_maxrate=8700 / vbv_bufsize=11600 / nal_hrd=vbr / filler=0 / ip_ratio=1.40 / aq=1:1.00
    Language : English
    Default : Yes
    Forced : No

    Audio #1
    ID : 2
    Format : E-AC-3 JOC
    Format/Info : Enhanced AC-3 with Joint Object Coding
    Commercial name : Dolby Digital Plus with Dolby Atmos
    Codec ID : A_EAC3
    Duration : 1 h 53 min
    Bit rate mode : Constant
    Bit rate : 768 kb/s
    Channel(s) : 6 channels
    Channel layout : L R C LFE Ls Rs
    Sampling rate : 48.0 kHz
    Frame rate : 31.250 FPS (1536 SPF)
    Compression mode : Lossy
    Stream size : 622 MiB (11%)
    Title : English
    Language : English
    Service kind : Complete Main
    Default : No
    Forced : No
    Complexity index : 16
    Number of dynamic objects : 15
    Bed channel count : 1 channel
    Bed channel configuration : LFE

    Audio #2
    ID : 3
    Format : E-AC-3
    Format/Info : Enhanced AC-3
    Commercial name : Dolby Digital Plus
    Codec ID : A_EAC3
    Duration : 1 h 53 min
    Bit rate mode : Constant
    Bit rate : 640 kb/s
    Channel(s) : 6 channels
    Channel layout : L R C LFE Ls Rs
    Sampling rate : 48.0 kHz
    Frame rate : 31.250 FPS (1536 SPF)
    Compression mode : Lossy
    Stream size : 519 MiB (9%)
    Title : Thai
    Language : Thai
    Service kind : Complete Main
    Default : Yes
    Forced : No

    Text #1
    ID : 4
    Format : UTF-8
    Codec ID : S_TEXT/UTF8
    Codec ID/Info : UTF-8 Plain Text
    Duration : 1 h 51 min
    Bit rate : 110 b/s
    Count of elements : 1413
    Stream size : 89.8 KiB (0%)
    Title : Thai SRT From Netflix
    Language : Thai
    Default : Yes
    Forced : No

    Text #2
    ID : 5
    Format : UTF-8
    Codec ID : S_TEXT/UTF8
    Codec ID/Info : UTF-8 Plain Text
    Duration : 1 h 51 min
    Bit rate : 2 b/s
    Count of elements : 36
    Stream size : 1.79 KiB (0%)
    Title : Thai SRT From Netflix Forced
    Language : Thai
    Default : No
    Forced : No

    Text #3
    ID : 6
    Format : UTF-8
    Codec ID : S_TEXT/UTF8
    Codec ID/Info : UTF-8 Plain Text
    Duration : 1 h 45 min
    Bit rate : 78 b/s
    Count of elements : 1910
    Stream size : 60.9 KiB (0%)
    Title : English SRT
    Language : English
    Default : No
    Forced : No

    Text #4
    ID : 7
    Format : PGS
    Muxing mode : zlib
    Codec ID : S_HDMV/PGS
    Codec ID/Info : Picture based subtitle format used on BDs/HD-DVDs
    Duration : 1 h 51 min
    Bit rate : 33.5 kb/s
    Count of elements : 2826
    Stream size : 26.7 MiB (0%)
    Title : Thai PGS [Angsana]
    Language : Thai
    Default : No
    Forced : No

    Text #5
    ID : 8
    Format : PGS
    Muxing mode : zlib
    Codec ID : S_HDMV/PGS
    Codec ID/Info : Picture based subtitle format used on BDs/HD-DVDs
    Duration : 1 h 51 min
    Bit rate : 33.5 kb/s
    Count of elements : 2826
    Stream size : 26.7 MiB (0%)
    Title : Thai PGS [Angsana Yellow]
    Language : Thai
    Default : No
    Forced : No

    Text #6
    ID : 9
    Format : PGS
    Muxing mode : zlib
    Codec ID : S_HDMV/PGS
    Codec ID/Info : Picture based subtitle format used on BDs/HD-DVDs
    Duration : 1 h 51 min
    Bit rate : 33.0 kb/s
    Count of elements : 2826
    Stream size : 26.3 MiB (0%)
    Title : Thai PGS [Sarabun]
    Language : Thai
    Default : No
    Forced : No

    Text #7
    ID : 10
    Format : PGS
    Muxing mode : zlib
    Codec ID : S_HDMV/PGS
    Codec ID/Info : Picture based subtitle format used on BDs/HD-DVDs
    Duration : 1 h 51 min
    Bit rate : 33.0 kb/s
    Count of elements : 2826
    Stream size : 26.3 MiB (0%)
    Title : Thai PGS [Sarabun Yellow]
    Language : Thai
    Default : No
    Forced : No

    Text #8
    ID : 11
    Format : PGS
    Muxing mode : zlib
    Codec ID : S_HDMV/PGS
    Codec ID/Info : Picture based subtitle format used on BDs/HD-DVDs
    Duration : 1 h 45 min
    Bit rate : 46.8 kb/s
    Count of elements : 3820
    Stream size : 35.3 MiB (1%)
    Title : English PGS
    Language : English
    Default : No
    Forced : No











    Download: cornfile
    http://cornfile.com/x5sryk8mw20j
    Download: mekafile
    meka รออัพ..*ระบบล่ม*

  2. The Following 5 Users Say Thank You to Duckload.us For This Useful Post:

    amorn wichian (08-15-2020), bigbang06 (08-14-2020), jackjangri (08-15-2020), kappa (09-12-2020), Wesker_TOT (08-15-2020)

  3. #2
    Senior Member
    สมัครเมื่อ
    Dec 2013
    โพสต์
    2,282
    Thanks
    4,207
    Thanked 0 Times in 0 Posts
    ขอบคุณครับ...

  4. #3
    Senior Member
    สมัครเมื่อ
    Jul 2013
    โพสต์
    1,130
    Thanks
    0
    Thanked 0 Times in 0 Posts
    ขอบคุณครับผม

+ ตอบกลับกระทู้

ข้อมูลกระทู้

Users Browsing this Thread

ในขณะนี้มี 1 ท่านดูกระทู้อยู่. (0 สมาชิกและ 1 ผู้เยี่ยมชม)

     

กฎการโพสต์ข้อความ

  • ท่าน ไม่สามารถ ตั้งกระทู้ใหม่ได้
  • ท่าน ไม่สามารถ ตอบกระทู้ได้
  • ท่าน ไม่สามารถ แนบไฟล์ได้
  • ท่าน ไม่สามารถ แก้ไขข้อความโพสต์ได้
  • BB code สถานะ เปิด
  • Smilies สถานะ เปิด
  • [IMG] สถานะ เปิด
  • HTML สถานะ ปิด