ภาพยนตร์สยองขวัญนิยายวิทยาศาสตร์รัสเซีย เรื่อง Sputnik (2020) มฤตยูแฝงร่าง ( SOUND RUS MULTI SUB ) มีซับไทย

มี 2 ไฟล์ 1.ไฟล์เล็ก ( SOUND RUS SUB TH )
2. ไฟล์ใหญ่ ( SOUND RUS MULTI SUB ) ไม่มีซับไทย

ชื่อต้นฉบับ : С п у т н и к
ผู้กำกับ : Egor Abramenko
ผู้เขียนบท : Oleg Malovichko, Andrei Zolotarev
นักแสดง : Pyotr Fyodorov, Oksana Akinshina, Fedor Bondarchuk, Anna Nazarova, Anton Vasilev, Vasiliy Zotov

เรื่องย่อ :

ปี 1983 ในช่วงสงครามเย็น สหภาพโซเวียตได้ส่งยานอวกาศออร์บิต-4 ขึ้นไปทำภารกิจในอวกาศ มันเป็นดาว Oksana Akinshina มันได้เกิดอุบัติเหตุ และมีเพียงแต่ คอนสแตนติน เซอร์จีวิช (ปิออตร์ ฟิโอโดรอฟ) นักบินอวกาศที่รอดชีวิตเพียงคนเดียว ทางเซมิราดอฟ (เฟดอร์ บอนดาร์ชุค) ในฐานะแพทย์อายุน้อยที่ได้รับคัดเลือกจากกองทัพเพื่อ ประเมินนักบินอวกาศผู้รอดชีวิตจากอุบัติเหตุอวกาศลึก ลับและกลับสู่โลกด้วยสิ่งมีชีวิตอันตรายที่อาศัยอยู่ ในตัวเขา นอกจาก Akinshina

ผู้บัญชาการทหารได้ส่งแพทย์สาว ทาเทียนา ยูเรฟนา (อัคซานา อาคินชินา) เข้าไปประเมินสภาวะของเขา ก่อนที่ไม่นานเธอก็ได้รับรู้ว่ามีสิ่งมีชีวิตจากนอกโ ลกซ่อนอยู่ในร่างกายของเขา เธอต้องหาทางพยายามแยกมันออกจากเขา ขณะที่เซมิราดอฟเองมีก็แผนการบางอย่างกับสิ่งมีชีวิต นี้

ผู้รอดชีวิตเพียงคนเดียวจากเหตุการณ์ยานอวกาศปริศนาย ังไม่ได้กลับบ้านคนเดียวที่ซ่อนตัวอยู่ในร่างกายของเ ขาเป็นสิ่งมีชีวิตที่อันตราย

Code:
Format                                   : MPEG-4
Format profile                           : Base Media
Codec ID                                 : isom (isom/iso2/avc1/mp41)
File size                                : 694 MiB
Duration                                 : 1 h 53 min
Overall bit rate mode                    : Variable
Overall bit rate                         : 853 kb/s

Video
ID                                       : 1
Format                                   : AVC
Format/Info                              : Advanced Video Codec
Format profile                           : [email protected]
Format settings                          : CABAC / 2 Ref Frames
Format settings, CABAC                   : Yes
Format settings, Reference frames        : 2 frames
Codec ID                                 : avc1
Codec ID/Info                            : Advanced Video Coding
Duration                                 : 1 h 53 min
Source duration                          : 1 h 53 min
Bit rate                                 : 718 kb/s
Width                                    : 1 912 pixels
Original width                           : 1 920 pixels
Height                                   : 816 pixels
Original height                          : 804 pixels
Display aspect ratio                     : 2.40:1
Frame rate mode                          : Variable
Frame rate                               : 25.000 FPS
Minimum frame rate                       : 6.250 FPS
Maximum frame rate                       : 75.000 FPS
Color space                              : YUV
Chroma subsampling                       : 4:2:0
Bit depth                                : 8 bits
Scan type                                : Progressive
Bits/(Pixel*Frame)                       : 0.018
Stream size                              : 584 MiB (84%)
Source stream size                       : 584 MiB (84%)
Writing library                          : x264 core 155 r2901 7d0ff22
Color range                              : Limited
Color primaries                          : BT.709
Transfer characteristics                 : BT.709
Matrix coefficients                      : BT.709
mdhd_Duration                            : 6824241
Codec configuration box                  : avcC

Audio
ID                                       : 2
Format                                   : AAC LC
Format/Info                              : Advanced Audio Codec Low Complexity
Codec ID                                 : mp4a-40-2
Duration                                 : 1 h 53 min
Bit rate mode                            : Variable
Bit rate                                 : 128 kb/s
Maximum bit rate                         : 216 kb/s
Channel(s)                               : 2 channels
Channel layout                           : L R
Sampling rate                            : 44.1 kHz
Frame rate                               : 43.066 FPS (1024 SPF)
Compression mode                         : Lossy
Stream size                              : 104 MiB (15%)
Code:
Format                                   : Matroska
Format version                           : Version 4
File size                                : 4.22 GiB
Duration                                 : 1 h 53 min
Overall bit rate                         : 5 306 kb/s
Movie name                               : ELEKTRI4KA.UNIONGANG
Encoded date                             : UTC 2020-04-22 22:02:20
Writing application                      : mkvmerge v8.3.0 ('Over the Horizon') 64bit
Writing library                          : libebml v1.3.1 + libmatroska v1.4.2

Video
ID                                       : 1
Format                                   : AVC
Format/Info                              : Advanced Video Codec
Format profile                           : [email protected]
Format settings                          : CABAC / 4 Ref Frames
Format settings, CABAC                   : Yes
Format settings, Reference frames        : 4 frames
Codec ID                                 : V_MPEG4/ISO/AVC
Duration                                 : 1 h 53 min
Bit rate                                 : 5 120 kb/s
Width                                    : 1 920 pixels
Height                                   : 800 pixels
Display aspect ratio                     : 2.40:1
Frame rate mode                          : Constant
Frame rate                               : 24.000 FPS
Color space                              : YUV
Chroma subsampling                       : 4:2:0
Bit depth                                : 8 bits
Scan type                                : Progressive
Bits/(Pixel*Frame)                       : 0.139
Stream size                              : 4.06 GiB (96%)
Writing library                          : x264 core 148
Encoding settings                        : cabac=1 / ref=3 / deblock=1:0:0 / analyse=0x3:0x113 / me=hex / subme=7 / psy=1 / psy_rd=1.00:0.00 / mixed_ref=1 / me_range=16 / chroma_me=1 / trellis=1 / 8x8dct=1 / cqm=0 / deadzone=21,11 / fast_pskip=1 / chroma_qp_offset=-2 / threads=25 / lookahead_threads=4 / sliced_threads=0 / nr=0 / decimate=1 / interlaced=0 / bluray_compat=0 / constrained_intra=0 / bframes=6 / b_pyramid=2 / b_adapt=1 / b_bias=0 / direct=1 / weightb=1 / open_gop=0 / weightp=2 / keyint=48 / keyint_min=25 / scenecut=0 / intra_refresh=0 / rc_lookahead=40 / rc=2pass / mbtree=1 / bitrate=5120 / ratetol=1.0 / qcomp=0.60 / qpmin=0 / qpmax=69 / qpstep=4 / cplxblur=20.0 / qblur=0.5 / vbv_maxrate=7680 / vbv_bufsize=20480 / nal_hrd=none / filler=0 / ip_ratio=1.40 / aq=1:1.00
Default                                  : Yes
Forced                                   : No

Audio
ID                                       : 2
Format                                   : AC-3
Format/Info                              : Audio Coding 3
Commercial name                          : Dolby Digital
Codec ID                                 : A_AC3
Duration                                 : 1 h 53 min
Bit rate mode                            : Constant
Bit rate                                 : 192 kb/s
Channel(s)                               : 2 channels
Channel layout                           : L R
Sampling rate                            : 48.0 kHz
Frame rate                               : 31.250 FPS (1536 SPF)
Compression mode                         : Lossy
Stream size                              : 156 MiB (4%)
Title                                    : ivi
Language                                 : Russian
Service kind                             : Complete Main
Default                                  : Yes
Forced                                   : No

Menu
00:00:00.000                             : en:Глава 1
00:08:01.916                             : en:Глава 2
00:16:22.249                             : en:Глава 3
00:24:29.789                             : en:Глава 4
00:32:31.622                             : en:Глава 5
00:40:34.038                             : en:Глава 6
00:48:46.079                             : en:Глава 7
00:57:10.829                             : en:Глава 8
01:05:21.245                             : en:Глава 9
01:13:33.910                             : en:Глава 10
01:21:54.910                             : en:Глава 11
01:30:45.535                             : en:Глава 12
01:37:40.535                             : en:Глава 13



TRAILER :



Download: cornfile
http://cornfile.com/qr92s6yanrhg
Download: mekafile
meka รออัพ..*ระบบล่ม*