+ ตอบกลับกระทู้
สรุปผลการค้นหา 1 ถึง 7 จากทั้งหมด 7
  1. #1
    Administrators รูปส่วนตัว Duckload.us
    สมัครเมื่อ
    Dec 2010
    โพสต์
    119,935
    Thanks
    7
    Thanked 125,351 Times in 56,072 Posts

    Thumbs up [ฝรั่ง]-[* ใหม่ Amazon Prime *] The Boys Season 2 (2020) : ก๊วนหนุ่มซ่าล่าซูเปอร์ฮีโร่ ซีซั่น 2 - EP1-8 END [เสียงอังกฤษ 5.1] [บรรยายไทย + อังกฤษ] [ซับไทย Master From Amazon Prime + ซับ SRT , PGS]-WEB-DL.H.264.1080p.



    The Boys ซีซั่น 2 เมื่อกลุ่มก๊วนต่อต้านคนเหนือมนุษย์กลับกลายเป็นคนนอ กกฏหมาย พวกเขาจึงจำเป็นดิ้นรนและสู้กลับ ในขณะที่บริษัทฮีโร่เริ่มสั่นกลัวกับวายร้ายที่มีพลั งพิเศษ และฮีโร่คนใหม่ สตรอมฟรอนท์ ที่เข้ามาสั่นคลอนองค์กร รวมไปถึงโฮมแลนเดอร์ด้วย

    ในซีซัน 2 เรื่องราวในก๊วนหนุ่มซ่าล่าซูเปอร์ฮีโร่เข้มข้นกว่าเ ดิม รุนแรงกว่าเดิม บุตเชอร์ ฮิวอี้และทีมยังเสียศูนย์จากความสูญเสียในซีซัน 1 พวกเขากลายเป็นผู้ร้ายหลบหนี แต่ก็ต้องต่อสู้กับเหล่าซูเปอร์ฮีโร่ เมื่อวอท บริษัทผู้ควบคุมฮีโร่ ทำเงินจากความตื่นตระหนกจากคำขู่ของเหล่าวายร้ายซูปส ์ ในซีซันนี้ สตอร์มฟรอนต์ ฮีโร่คนใหม่เข้ามาสั่นคลอนวอทและท้าทายโฮมแลนเดอร์ ผู้ที่อารมณ์แปรปรวนอยู่แล้ว

    Format : Matroska
    Format version : Version 4
    File size : 3.64 GiB
    Duration : 1 h 2 min
    Overall bit rate : 8 274 kb/s
    Movie name : The.Boys.S02E01.The.Big.Ride.1080p.AMZN.WEB-DL.DDP5.1.x264_SkiesIT
    Encoded date : UTC 2020-09-04 05:03:09
    Writing application : mkvmerge v49.0.0 ('Sick Of Losing Soulmates') 64-bit
    Writing library : libebml v1.4.0 + libmatroska v1.6.1

    Video
    ID : 1
    Format : AVC
    Format/Info : Advanced Video Codec
    Format profile : [email protected]
    Format settings : CABAC / 4 Ref Frames
    Format settings, CABAC : Yes
    Format settings, Reference frames : 4 frames
    Codec ID : V_MPEG4/ISO/AVC
    Duration : 1 h 2 min
    Bit rate mode : Constant
    Bit rate : 7 535 kb/s
    Nominal bit rate : 10 000 kb/s
    Width : 1 920 pixels
    Height : 800 pixels
    Display aspect ratio : 2.40:1
    Frame rate mode : Constant
    Frame rate : 23.976 (24000/1001) FPS
    Color space : YUV
    Chroma subsampling : 4:2:0
    Bit depth : 8 bits
    Scan type : Progressive
    Bits/(Pixel*Frame) : 0.205
    Stream size : 3.31 GiB (91%)
    Title : The.Boys.S02E01.The.Big.Ride.1080p.AMZN.WEB-DL.DDP5.1.x264_SkiesIT
    Language : English
    Default : Yes
    Forced : No
    Color range : Limited
    Color primaries : BT.709
    Transfer characteristics : BT.709
    Matrix coefficients : BT.709

    Audio
    ID : 2
    Format : E-AC-3
    Format/Info : Enhanced AC-3
    Commercial name : Dolby Digital Plus
    Codec ID : A_EAC3
    Duration : 1 h 2 min
    Bit rate mode : Constant
    Bit rate : 640 kb/s
    Channel(s) : 6 channels
    Channel layout : L R C LFE Ls Rs
    Sampling rate : 48.0 kHz
    Frame rate : 31.250 FPS (1536 SPF)
    Compression mode : Lossy
    Stream size : 288 MiB (8%)
    Language : English
    Service kind : Complete Main
    Default : Yes
    Forced : No

    Text #1
    ID : 3
    Format : UTF-8
    Codec ID : S_TEXT/UTF8
    Codec ID/Info : UTF-8 Plain Text
    Duration : 1 h 2 min
    Bit rate : 149 b/s
    Count of elements : 903
    Stream size : 68.3 KiB (0%)
    Title : Thai SRT From Amazon Prime
    Language : Thai
    Default : Yes
    Forced : No

    Text #2
    ID : 4
    Format : UTF-8
    Codec ID : S_TEXT/UTF8
    Codec ID/Info : UTF-8 Plain Text
    Duration : 1 h 2 min
    Bit rate : 72 b/s
    Count of elements : 1164
    Stream size : 33.2 KiB (0%)
    Title : English SRT
    Language : English
    Default : No
    Forced : No

    Text #3
    ID : 5
    Format : PGS
    Muxing mode : zlib
    Codec ID : S_HDMV/PGS
    Codec ID/Info : Picture based subtitle format used on BDs/HD-DVDs
    Duration : 1 h 2 min
    Bit rate : 45.2 kb/s
    Count of elements : 1806
    Stream size : 20.1 MiB (1%)
    Title : Thai PGS [Angsana]
    Language : Thai
    Default : No
    Forced : No

    Text #4
    ID : 6
    Format : PGS
    Muxing mode : zlib
    Codec ID : S_HDMV/PGS
    Codec ID/Info : Picture based subtitle format used on BDs/HD-DVDs
    Duration : 1 h 2 min
    Bit rate : 45.2 kb/s
    Count of elements : 1806
    Stream size : 20.1 MiB (1%)
    Title : Thai PGS [Angsana Yellow]
    Language : Thai
    Default : No
    Forced : No

    Text #5
    ID : 7
    Format : PGS
    Muxing mode : zlib
    Codec ID : S_HDMV/PGS
    Codec ID/Info : Picture based subtitle format used on BDs/HD-DVDs
    Duration : 1 h 2 min
    Bit rate : 44.5 kb/s
    Count of elements : 1806
    Stream size : 19.9 MiB (1%)
    Title : Thai PGS [Sarabun]
    Language : Thai
    Default : No
    Forced : No

    Text #6
    ID : 8
    Format : PGS
    Muxing mode : zlib
    Codec ID : S_HDMV/PGS
    Codec ID/Info : Picture based subtitle format used on BDs/HD-DVDs
    Duration : 1 h 2 min
    Bit rate : 44.5 kb/s
    Count of elements : 1806
    Stream size : 19.9 MiB (1%)
    Title : Thai PGS [Sarabun Yellow]
    Language : Thai
    Default : No
    Forced : No

    Text #7
    ID : 9
    Format : PGS
    Muxing mode : zlib
    Codec ID : S_HDMV/PGS
    Codec ID/Info : Picture based subtitle format used on BDs/HD-DVDs
    Duration : 1 h 2 min
    Bit rate : 45.0 kb/s
    Count of elements : 2328
    Stream size : 20.1 MiB (1%)
    Title : English PGS
    Language : English
    Default : No
    Forced : No

    Menu
    00:00:00.000 : en:Amazon Original
    00:00:05.000 : en:Ratings
    00:00:15.000 : en:Previously On
    00:02:58.000 : en:Collateral damage negotiations
    00:06:11.000 : en:A memorial service
    00:09:42.000 : en:Post-funeral interview
    00:11:30.000 : en:Title Sequence | Hughie in bed
    00:11:37.000 : en:Getting ready
    00:14:30.000 : en:Secret meetings
    00:17:17.000 : en:The Deep has a meltdown
    00:18:42.000 : en:Watching TV
    00:19:48.000 : en:Team arguments
    00:21:20.000 : en:Homelander is in power
    00:27:03.000 : en:Making money
    00:30:02.000 : en:A new patient
    00:31:37.000 : en:Watching the tapes
    00:33:43.000 : en:Focus groups
    00:35:08.000 : en:A safe space
    00:38:19.000 : en:What to do next
    00:43:05.000 : en:Black mail
    00:46:40.000 : en:New kid on the block
    00:48:50.000 : en:CIA meeting
    00:51:23.000 : en:Homelander confronts Stan
    00:56:07.000 : en:An unexpected visit
    00:56:40.000 : en:Lies and deceit
    01:00:56.000 : en:End Credits











    The.Boys.S01
    1
    http://www.filecondo.com/dl.php?f=773ab51Kec5L
    2
    http://www.filecondo.com/dl.php?f=c97ff31Kec6I
    3
    http://www.filecondo.com/dl.php?f=Db3c2d1Kec8D
    4
    http://www.filecondo.com/dl.php?f=P85c2a1Kec9C
    5
    http://www.filecondo.com/dl.php?f=g61e911KecaD
    6
    http://www.filecondo.com/dl.php?f=x7a7b91Kecbz
    7
    http://www.filecondo.com/dl.php?f=wca47c1Keccv
    8
    http://www.filecondo.com/dl.php?f=V0ecf81Kecdw

    The.Boys.2019.S01E01.The.Name.of.the.Game.1080p.AM [email protected] - 3.4 GB
    [email protected] - 3.4 GB
    [email protected]v - 3.2 GB
    The.Boys.2019.S01E04.The.Female.of.the.Species.108 [email protected] - 3.3 GB
    The.Boys.2019.S01E05.Good.for.the.Soul.1080p.AMZN. [email protected] - 3.7 GB
    [email protected]og.mkv - 3.5 GB
    The.Boys.2019.S[email protected]pog.mkv - 3.3 GB
    [email protected]g.mkv - 3.7 GB


    The.Boys.S02
    Download: filecondo
    1
    http://www.filecondo.com/dl.php?f=o1ca9f1Kebmi
    2
    http://www.filecondo.com/dl.php?f=292c511Kebne
    3
    http://www.filecondo.com/dl.php?f=g11ef71Kebpa
    4
    http://www.filecondo.com/dl.php?f=T450fc1Kh38Z
    5
    http://www.filecondo.com/dl.php?f=o877a21Kja1E
    6
    http://www.filecondo.com/dl.php?f=W838431KlLJh
    7
    http://www.filecondo.com/dl.php?f=d0a9511Kogtn
    8
    http://www.filecondo.com/dl.php?f=p1eca31KqMO3

    Download: cornfile
    The.Boys.S02E01.The.Big.Ride.1080p.AMZN.WEB-DL.DDP5.1.x264_SkiesIT.mkv - 3.6 GB
    The.Boys.S02E02.Proper.Preparation.and.Planning.10 80p.AMZN.WEB-DL.DDP5.1.x264_SkiesIT.mkv - 3.3 GB
    The.Boys.S02E03.Over.the.Hill.with.the.Swords.of.a .Thousand.Men.1080p.AMZN.WEB-DL.DDP5.1.x264_SkiesIT.mkv - 3.2 GB
    The.Boys.S02E04.Nothing.Like.It.in.the.World.1080p .AMZN.WEB-DL.DDP5.1.x264_SkiesIT.mkv - 3921969990
    The.Boys.S02E05.We.Gotta.Go.Now.1080p.AMZN.WEBRip. DDP5.1.x264_SkiesIT.mkv - 4063130084
    The.Boys.S02E06.The.Bloody.Doors.Off.1080p.AMZN.WE B-DL.DDP5.1.x264_SkiesIT.mkv - 4027964440
    The.Boys.S02E07.Butcher.Baker.Candlestick.Maker.10 80p.AMZN.WEB-DL.DDP5.1.x264_SkiesIT.mkv - 3683822687
    The.Boys.S02E08.What.I.Know.1080p.AMZN.WEB-DL.DDP5.1.x264_SkiesIT.mkv - 4371879752

  2. The Following 4 Users Say Thank You to Duckload.us For This Useful Post:

    jangska (09-06-2020), kappa (09-12-2020), neorun (09-18-2020), Wesker_TOT (09-05-2020)

  3. #2
    Senior Member
    สมัครเมื่อ
    Jul 2013
    โพสต์
    1,299
    Thanks
    0
    Thanked 0 Times in 0 Posts
    ขอบคุณครับผม

  4. #3
    Junior Member
    สมัครเมื่อ
    May 2019
    โพสต์
    3
    Thanks
    0
    Thanked 0 Times in 0 Posts
    ขอบคุณครับ

  5. #4
    Senior Member
    สมัครเมื่อ
    Dec 2013
    โพสต์
    2,435
    Thanks
    4,360
    Thanked 0 Times in 0 Posts
    ขอบคุณนะรับ...

  6. #5
    Member
    สมัครเมื่อ
    Apr 2020
    โพสต์
    71
    Thanks
    0
    Thanked 0 Times in 0 Posts
    ขอบคุณครับ

  7. #6
    Senior Member
    สมัครเมื่อ
    Jun 2014
    โพสต์
    5,127
    Thanks
    0
    Thanked 0 Times in 0 Posts
    ขอบคุณครับ

  8. #7
    Administrators รูปส่วนตัว Duckload.us
    สมัครเมื่อ
    Dec 2010
    โพสต์
    119,935
    Thanks
    7
    Thanked 125,351 Times in 56,072 Posts
    [ฝรั่ง]-[* ใหม่ Amazon Prime *] The Boys Season 2 (2020) : ก๊วนหนุ่มซ่าล่าซูเปอร์ฮีโร่ ซีซั่น 2 - EP1-8 END [เสียงอังกฤษ 5.1] [บรรยายไทย + อังกฤษ] [ซับไทย Master From Amazon Prime + ซับ SRT , PGS]-WEB-DL.H.264.1080p.

+ ตอบกลับกระทู้

ข้อมูลกระทู้

Users Browsing this Thread

ในขณะนี้มี 1 ท่านดูกระทู้อยู่. (0 สมาชิกและ 1 ผู้เยี่ยมชม)

     

กฎการโพสต์ข้อความ

  • ท่าน ไม่สามารถ ตั้งกระทู้ใหม่ได้
  • ท่าน ไม่สามารถ ตอบกระทู้ได้
  • ท่าน ไม่สามารถ แนบไฟล์ได้
  • ท่าน ไม่สามารถ แก้ไขข้อความโพสต์ได้
  • BB code สถานะ เปิด
  • Smilies สถานะ เปิด
  • [IMG] สถานะ เปิด
  • HTML สถานะ ปิด