+ ตอบกลับกระทู้
สรุปผลการค้นหา 1 ถึง 4 จากทั้งหมด 4
  1. #1
    Administrators รูปส่วนตัว Duckload.us
    สมัครเมื่อ
    Dec 2010
    โพสต์
    118,387
    Thanks
    7
    Thanked 124,480 Times in 55,703 Posts

    Thumbs up [ฝรั่ง]-[New series HBO]Raised.by.Wolves.2020.S01 [E01-E07].Raised.by.Wolves [เสียง:อังกฤษ AC-3 ][บรรยาย: ไทย HBO PGS-อังกฤษ]-WEB-DL.H.264.1080p. [From HD-TV]-[Soundtrack บรรยายไทย]







    RAISED BY WOLVES S1
    ถูกเลี้ยงมาโดย Wolves เรื่องราวกล่าวถึงหุ่นยนต์สองตัวที่ได้รับมอบหมาย
    ให้เลี้ยงลูกมนุษย์บนดาวเคราะห์บริสุทธิ์ลึกลับ


    Video
    ID : 1
    Format : AVC
    Format/Info : Advanced Video Codec
    Format profile : [email protected]
    Format settings : CABAC / 4 Ref Frames
    Format settings, CABAC : Yes
    Format settings, Reference fra : 4 frames
    Codec ID : V_MPEG4/ISO/AVC
    Duration : 53 min 7 s
    Bit rate mode : Variable
    Bit rate : 8 223 kb/s
    Maximum bit rate : 12.4 Mb/s
    Width : 1 920 pixels
    Height : 1 080 pixels
    Display aspect ratio : 16:9
    Frame rate mode : Constant
    Frame rate : 23.976 (24000/1001) FPS
    Color space : YUV
    Chroma subsampling : 4:2:0
    Bit depth : 8 bits
    Scan type : Progressive
    Bits/(Pixel*Frame) : 0.165
    Stream size : 3.05 GiB (95%)
    Default : Yes
    Forced : No
    Color range : Limited
    Color primaries : BT.709
    Transfer characteristics : BT.709
    Matrix coefficients : BT.709

    Audio
    ID : 2
    Format : AC-3
    Format/Info : Audio Coding 3
    Commercial name : Dolby Digital
    Codec ID : A_AC3
    Duration : 53 min 7 s
    Bit rate mode : Constant
    Bit rate : 384 kb/s
    Channel(s) : 6 channels
    Channel layout : L R C LFE Ls Rs
    Sampling rate : 48.0 kHz
    Frame rate : 31.250 FPS (1536 SPF)
    Compression mode : Lossy
    Stream size : 146 MiB (4%)
    Title : [English-AC-3]
    Language : English
    Service kind : Complete Main
    Default : Yes
    Forced : No

    Text #1
    ID : 3
    Format : PGS
    Muxing mode : zlib
    Codec ID : S_HDMV/PGS
    Codec ID/Info : Picture based subtitle format used on BDs/HD-DVDs
    Duration : 51 min 37 s
    Bit rate : 26.5 kb/s
    Count of elements : 892
    Stream size : 9.80 MiB (0%)
    Title : [EucrosiaUPC HBO PGS]
    Language : Thai
    Default : Yes
    Forced : No

    Text #2
    ID : 4
    Format : PGS
    Muxing mode : zlib
    Codec ID : S_HDMV/PGS
    Codec ID/Info : Picture based subtitle format used on BDs/HD-DVDs
    Duration : 51 min 37 s
    Bit rate : 26.7 kb/s
    Count of elements : 892
    Stream size : 9.85 MiB (0%)
    Title : [TH Sarabun New HBO PGS]
    Language : Thai
    Default : No
    Forced : No

    Text #3
    ID : 5
    Format : PGS
    Muxing mode : zlib
    Codec ID : S_HDMV/PGS
    Codec ID/Info : Picture based subtitle format used on BDs/HD-DVDs
    Duration : 51 min 37 s
    Bit rate : 26.7 kb/s
    Count of elements : 892
    Stream size : 9.86 MiB (0%)
    Title : [Cordia New HBO PGS]
    Language : Thai
    Default : No
    Forced : No

    Text #4
    ID : 6
    Format : PGS
    Muxing mode : zlib
    Codec ID : S_HDMV/PGS
    Codec ID/Info : Picture based subtitle format used on BDs/HD-DVDs
    Duration : 51 min 37 s
    Bit rate : 25.9 kb/s
    Count of elements : 892
    Stream size : 9.58 MiB (0%)
    Title : [FreesiaUPC HBO PGS]
    Language : Thai
    Default : No
    Forced : No

    Text #5
    ID : 7
    Format : UTF-8
    Codec ID : S_TEXT/UTF8
    Codec ID/Info : UTF-8 Plain Text
    Duration : 53 min 2 s
    Bit rate : 39 b/s
    Count of elements : 726
    Stream size : 15.5 KiB (0%)
    Title : SDH
    Language : English
    Default : No
    Forced : No









    Download: filecondo
    1
    http://www.filecondo.com/dl.php?f=o7e0471Keaoe
    2
    http://www.filecondo.com/dl.php?f=58a16b1Keap9
    3
    http://www.filecondo.com/dl.php?f=v93af21Keaq9
    4
    http://www.filecondo.com/dl.php?f=V577751KhoIc
    5
    http://www.filecondo.com/dl.php?f=u85b3f1KhoJe
    6
    http://www.filecondo.com/dl.php?f=x5a3281KjzAw
    7
    http://www.filecondo.com/dl.php?f=I49d291KjzBy

    Download: cornfile
    Raised.by.Wolves.2020.S01E01.Raised.by.Wolves.1080 p.mkv - 3.2 GB
    Raised.by.Wolves.2020.S01E02.Pentagram.1080p.mkv - 2.5 GB
    Raised.by.Wolves.2020.S01E03.Virtual.Faith.1080p.m kv - 3.0 GB
    Raised.by.Wolves.2020.S01E04.Natures.Course.1080p. mkv - 2.8 GB
    Raised.by.Wolves.2020.S01E05.Infected.Memory.1080p .mkv - 3.3 GB
    Raised.by.Wolves.2020.S01E06.Lost.Paradise.1080p.m kv - 3.3 GB
    Raised.by.Wolves.2020.S01E07.Faces.1080p.mkv - 3.0 GB

  2. The Following 5 Users Say Thank You to Duckload.us For This Useful Post:

    amorn wichian (09-05-2020), jangska (09-06-2020), neorun (09-06-2020), noi54 (09-16-2020), Wesker_TOT (09-05-2020)

  3. #2
    Senior Member
    สมัครเมื่อ
    Dec 2013
    โพสต์
    2,295
    Thanks
    4,220
    Thanked 0 Times in 0 Posts
    ขอบคุณครับ...

  4. #3
    Senior Member
    สมัครเมื่อ
    Jul 2013
    โพสต์
    1,141
    Thanks
    0
    Thanked 0 Times in 0 Posts
    ขอบคุณครับผม

  5. #4
    Senior Member
    สมัครเมื่อ
    May 2014
    โพสต์
    441
    Thanks
    0
    Thanked 0 Times in 0 Posts
    ep.4-5 ซับไทยไม่ทำงานครับ ไม่แสดงเลยครับ แต่ซับengดูได้ปกติครับแอด รบกวนเชคให้หน่อยนะครับ

+ ตอบกลับกระทู้

ข้อมูลกระทู้

Users Browsing this Thread

ในขณะนี้มี 1 ท่านดูกระทู้อยู่. (0 สมาชิกและ 1 ผู้เยี่ยมชม)

     

กฎการโพสต์ข้อความ

  • ท่าน ไม่สามารถ ตั้งกระทู้ใหม่ได้
  • ท่าน ไม่สามารถ ตอบกระทู้ได้
  • ท่าน ไม่สามารถ แนบไฟล์ได้
  • ท่าน ไม่สามารถ แก้ไขข้อความโพสต์ได้
  • BB code สถานะ เปิด
  • Smilies สถานะ เปิด
  • [IMG] สถานะ เปิด
  • HTML สถานะ ปิด