+ ตอบกลับกระทู้
สรุปผลการค้นหา 1 ถึง 3 จากทั้งหมด 3
  1. #1
    Administrators รูปส่วนตัว Duckload.us
    สมัครเมื่อ
    Dec 2010
    โพสต์
    118,387
    Thanks
    7
    Thanked 124,480 Times in 55,703 Posts

    Angry [ฝรั่ง]-[สร้างจากเรื่องจริง] Stockholm (2018) : สต็อกโฮล์ม-WEB-DL.H.264.1080p. [Modified]-[พากย์ไทย-พากย์อังกฤษ-บรรยายอังกฤษ]



    สร้างจากเรื่องจริงที่ไม่ธรรมดาของการปล้นธนาคารและว ิกฤตตัวประกันของเมืองในปี 1973 ในยุโรปซึ่งได้รับการบันทึกไว้ในบทความของ New Yorker เรื่อง The Bank Drama ปี 1974 โดย Daniel Lang เหตุการณ์ดังกล่าวดึงดูดความสนใจของโลกเมื่อตัวประกั นผูกมัดกับผู้ถูกจับกุมและหันมาต่อต้านเจ้าหน้าที่ก่ อให้เกิดปรากฏการณ์ทางจิตวิทยาที่เรียกว่า“ Stockholm Syndrome”

    Format : Matroska
    Format version : Version 4 / Version 2
    File size : 3.37 GiB
    Duration : 1 h 31 min
    Overall bit rate : 5 244 kb/s
    Writing application : mkvmerge v48.0.0 ('Fortress Around Your Heart') 64-bit
    Writing library : libebml v1.4.0 + libmatroska v1.6.0

    Video
    ID : 1
    Format : AVC
    Format/Info : Advanced Video Codec
    Format profile : [email protected]
    Format settings, CABAC : Yes
    Format settings, ReFrames : 4 frames
    Codec ID : V_MPEG4/ISO/AVC
    Duration : 1 h 31 min
    Bit rate : 4 500 kb/s
    Width : 1 920 pixels
    Height : 800 pixels
    Display aspect ratio : 2.40:1
    Frame rate mode : Constant
    Frame rate : 23.976 (24000/1001) FPS
    Color space : YUV
    Chroma subsampling : 4:2:0
    Bit depth : 8 bits
    Scan type : Progressive
    Bits/(Pixel*Frame) : 0.122
    Default : Yes
    Forced : No
    Color range : Limited
    Color primaries : BT.709
    Transfer characteristics : BT.709
    Matrix coefficients : BT.709

    Audio #1
    ID : 2
    Format : AC-3
    Format/Info : Audio Coding 3
    Mode extension : CM (complete main)
    Format settings, Endianness : Big
    Codec ID : A_AC3
    Duration : 1 h 31 min
    Bit rate mode : Constant
    Bit rate : 448 kb/s
    Channel(s) : 2 channels
    Channel positions : Front: L R
    Sampling rate : 48.0 kHz
    Frame rate : 31.250 FPS (1536 spf)
    Compression mode : Lossy
    Delay relative to video : 18 ms
    Stream size : 295 MiB (9%)
    Language : Thai
    Default : Yes
    Forced : No

    Audio #2
    ID : 3
    Format : AC-3
    Format/Info : Audio Coding 3
    Mode extension : CM (complete main)
    Format settings, Endianness : Big
    Codec ID : A_AC3
    Duration : 1 h 31 min
    Bit rate mode : Constant
    Bit rate : 448 kb/s
    Channel(s) : 2 channels
    Channel positions : Front: L R
    Sampling rate : 48.0 kHz
    Frame rate : 31.250 FPS (1536 spf)
    Compression mode : Lossy
    Stream size : 295 MiB (9%)
    Language : English
    Default : No
    Forced : No

    Text
    ID : 4
    Format : UTF-8
    Codec ID : S_TEXT/UTF8
    Codec ID/Info : UTF-8 Plain Text
    Duration : 1 h 27 min
    Bit rate : 71 b/s
    Count of elements : 1748
    Stream size : 45.6 KiB (0%)
    Language : English
    Default : Yes
    Forced : No









    http://cornfile.com/crqddv48pbt6

  2. The Following 2 Users Say Thank You to Duckload.us For This Useful Post:

    noi54 (09-16-2020), Tatum03 (09-16-2020)

  3. #2
    Senior Member
    สมัครเมื่อ
    Oct 2013
    ที่อยู่
    Thailand
    โพสต์
    1,381
    Thanks
    1,250
    Thanked 0 Times in 0 Posts
    ขอบคุณมาก

  4. #3
    Senior Member
    สมัครเมื่อ
    Jul 2013
    โพสต์
    1,141
    Thanks
    0
    Thanked 0 Times in 0 Posts
    ขอบคุณครับ

+ ตอบกลับกระทู้

ข้อมูลกระทู้

Users Browsing this Thread

ในขณะนี้มี 1 ท่านดูกระทู้อยู่. (0 สมาชิกและ 1 ผู้เยี่ยมชม)

     

กฎการโพสต์ข้อความ

  • ท่าน ไม่สามารถ ตั้งกระทู้ใหม่ได้
  • ท่าน ไม่สามารถ ตอบกระทู้ได้
  • ท่าน ไม่สามารถ แนบไฟล์ได้
  • ท่าน ไม่สามารถ แก้ไขข้อความโพสต์ได้
  • BB code สถานะ เปิด
  • Smilies สถานะ เปิด
  • [IMG] สถานะ เปิด
  • HTML สถานะ ปิด