+ ตอบกลับกระทู้
สรุปผลการค้นหา 1 ถึง 5 จากทั้งหมด 5
  1. #1
    Administrators รูปส่วนตัว Duckload.us
    สมัครเมื่อ
    Dec 2010
    โพสต์
    118,741
    Thanks
    7
    Thanked 124,694 Times in 55,812 Posts

    Thumbs up [ฝรั่ง]-The.Head.2020.1080p.AMZN.WEB-DL ซีรี่ย์จากช่อง HBO - เสียง Eng/ซับไทย จาก HBO GO-WEB-DL.H.264.1080p. [Master]-[Soundtrack บรรยายไทย]



    ซีรีส์ชุดนี้จะเป็นเรื่องราวของ กลุ่มนักวิทยาศาสตร์ในสถานีวิจัย Polaris VI Antarctic ที่ขั้วโลกใต้ กับการดูแลภากิจสำรวจสภาพภูมิอากาศ การเปลี่ยนแปลงที่จะส่งผลกระทบกับโลกใบนี้ พวกเขาต้องอยู่กับสถานีวิจัยเล็ก ๆ ท่ามกลางสภาพอากาศที่หนาวเหน็บแม้จะอยู่ในฤดูร้อน แต่อีก 6 เดือนที่ขั้วโลกใต้จะเข้าสู่ฤดูหนาวดวงอาทิตย์จะหายไ ปจากที่นี่ แต่งานวิจัยยังไม่จบทำให้ทางต้นสังกัดต้องเร่งมือที่ จะให้ทีมวิจัยจบภารกิจก่อนฤดูหนาวมาถึง แต่เหตุการณ์กลับเลวร้ายกว่าที่ใครจะคาดถึง เมื่อหัวหน้าทีมจากส่วนกลางไปที่สถานีวิจัย เขาต้องพบกับเรื่องเลวร้าย ทีมวิจัยบางคนหายไป บางคนถูกฆ่าตาย ส่วนที่รอดซ่อนตัวอยู่อย่างเงียบ ๆ อยู่กับความหวดระแวง คำตอบที่ได้จากผู้ที่รอดคือไม่รู้ว่าใครเป็น ฆาตรกร เรื่องราวทั้งหมดติดตามได้ใน " The Head "

    Format : Matroska
    Format version : Version 4
    File size : 1.58 GiB
    Duration : 45 min 27 s
    Overall bit rate : 4 985 kb/s
    Encoded date : UTC 2020-09-13 16:11:11
    Writing application : mkvmerge v50.0.0 ('Awakenings') 64-bit
    Writing library : libebml v1.4.0 + libmatroska v1.6.2

    Video
    ID : 1
    Format : AVC
    Format/Info : Advanced Video Codec
    Format profile : [email protected]
    Format settings : CABAC / 4 Ref Frames
    Format settings, CABAC : Yes
    Format settings, Reference frames : 4 frames
    Codec ID : V_MPEG4/ISO/AVC
    Duration : 45 min 27 s
    Bit rate mode : Constant
    Bit rate : 4 343 kb/s
    Nominal bit rate : 10 000 kb/s
    Width : 1 920 pixels
    Height : 960 pixels
    Display aspect ratio : 2.000
    Frame rate mode : Constant
    Frame rate : 25.000 FPS
    Color space : YUV
    Chroma subsampling : 4:2:0
    Bit depth : 8 bits
    Scan type : Progressive
    Bits/(Pixel*Frame) : 0.094
    Stream size : 1.38 GiB (87%)
    Default : Yes
    Forced : No
    Color range : Limited
    Color primaries : BT.709
    Transfer characteristics : BT.709
    Matrix coefficients : BT.709

    Audio
    ID : 2
    Format : E-AC-3
    Format/Info : Enhanced AC-3
    Commercial name : Dolby Digital Plus
    Codec ID : A_EAC3
    Duration : 45 min 27 s
    Bit rate mode : Constant
    Bit rate : 640 kb/s
    Channel(s) : 6 channels
    Channel layout : L R C LFE Ls Rs
    Sampling rate : 48.0 kHz
    Frame rate : 31.250 FPS (1536 SPF)
    Compression mode : Lossy
    Stream size : 208 MiB (13%)
    Language : English
    Service kind : Complete Main
    Default : Yes
    Forced : No

    Text #1
    ID : 3
    Format : S_TEXT/WEBVTT
    Codec ID : S_TEXT/WEBVTT
    Duration : 43 min 13 s
    Bit rate : 84 b/s
    Count of elements : 498
    Stream size : 26.7 KiB (0%)
    Language : Thai
    Default : Yes
    Forced : Yes

    Text #2
    ID : 4
    Format : UTF-8
    Codec ID : S_TEXT/UTF8
    Codec ID/Info : UTF-8 Plain Text
    Duration : 43 min 13 s
    Bit rate : 37 b/s
    Count of elements : 490
    Stream size : 11.8 KiB (0%)
    Language : English
    Default : No
    Forced : No





    Download: filecondo
    1 http://www.filecondo.com/dl.php?f=O3eba51KitEN
    2 http://www.filecondo.com/dl.php?f=82cae31KitFN
    3 http://www.filecondo.com/dl.php?f=U1b8521KitGJ
    4 http://www.filecondo.com/dl.php?f=Bd67161KitHG
    5 http://www.filecondo.com/dl.php?f=n620f41KitID
    6 http://www.filecondo.com/dl.php?f=N469d01KitJJ

    Download: cornfile
    The.Head.2020.S01E01.1080p.AMZN.WEB-DL.DDP5.1.H.264-NTb REBUILD.mkv - 1.9 GB
    The.Head.2020.S01E02.1080p.AMZN.WEB-DL.DDP5.1.H.264-NTb REBUILD.mkv - 2.1 GB
    The.Head.2020.S01E03.1080p.AMZN.WEB-DL.DDP5.1.H.264-NTb REBUILD.mkv - 1.7 GB
    The.Head.2020.S01E04.1080p.AMZN.WEB-DL.DDP5.1.H.264-NTb REBUILD.mkv - 1.6 GB
    The.Head.2020.S01E05.1080p.AMZN.WEB-DL.DDP5.1.H.264-NTb REBUILD.mkv - 1.6 GB
    The.Head.2020.S01E06.1080p.AMZN.WEB-DL.DDP5.1.H.264-NTb REBUILD.mkv - 2.3 GB

  2. The Following 2 Users Say Thank You to Duckload.us For This Useful Post:

    neorun (09-19-2020), Wesker_TOT (09-17-2020)

  3. #2
    Senior Member
    สมัครเมื่อ
    Dec 2013
    โพสต์
    2,385
    Thanks
    4,310
    Thanked 0 Times in 0 Posts
    ขอบคุณครับ...

  4. #3
    Senior Member
    สมัครเมื่อ
    Jul 2013
    โพสต์
    1,185
    Thanks
    0
    Thanked 0 Times in 0 Posts
    อู๊ว ซีรี่ย์เด็ดๆมาอีกแล้ว ขอบคุณครับ

  5. #4
    Senior Member
    สมัครเมื่อ
    Jul 2013
    โพสต์
    308
    Thanks
    783
    Thanked 0 Times in 0 Posts
    ขอบคุณมากๆจร้าาา Thank you ^__^

  6. #5
    Senior Member
    สมัครเมื่อ
    Jul 2012
    โพสต์
    7,087
    Thanks
    0
    Thanked 0 Times in 0 Posts
    ขอบคุณมากจ้า

+ ตอบกลับกระทู้

ข้อมูลกระทู้

Users Browsing this Thread

ในขณะนี้มี 1 ท่านดูกระทู้อยู่. (0 สมาชิกและ 1 ผู้เยี่ยมชม)

     

กฎการโพสต์ข้อความ

  • ท่าน ไม่สามารถ ตั้งกระทู้ใหม่ได้
  • ท่าน ไม่สามารถ ตอบกระทู้ได้
  • ท่าน ไม่สามารถ แนบไฟล์ได้
  • ท่าน ไม่สามารถ แก้ไขข้อความโพสต์ได้
  • BB code สถานะ เปิด
  • Smilies สถานะ เปิด
  • [IMG] สถานะ เปิด
  • HTML สถานะ ปิด