+ ตอบกลับกระทู้
หน้า 1 จากทั้งหมด 2 หน้า 1 2 หน้าสุดท้ายหน้าสุดท้าย
สรุปผลการค้นหา 1 ถึง 10 จากทั้งหมด 11
  1. #1
    Administrators รูปส่วนตัว Duckload.us
    สมัครเมื่อ
    Dec 2010
    โพสต์
    119,944
    Thanks
    7
    Thanked 125,371 Times in 56,079 Posts

    Lightbulb [เกาหลี]-[The Tale of Nokdu นกดู ผมเป็นแม่หม้ายครับ Jang Dong Yoon, Kim So Hyun, Kang Tae Oh, Jung Joon Ho, Kim Tae Woo TH Ep.1-16 END]-HDTV.H.264.1080p. [From HD-TV]-[Sound:Thai/Korea]-[Sub:Thai]




    ซีรี่ย์เกาหลี: The Tale of Nokdu
    ชื่อภาษาไทย: นกดู ผมเป็นแม่หม้ายครับ
    ประเภท: Historical, Romance, Comedy
    นักแสดง: Jang Dong Yoon, Kim So Hyun, Kang Tae Oh, Jung Joon Ho, Kim Tae Woo
    จำนวนตอน: 16
    เขียนบทโดย: Im Ye Jin, Baek So Yun
    ผู้กำกับ: Kim Dong Hwi
    ออกอากาศทางสถานีโทรทัศน์: Viu
    เริ่มออกอากาศ: 5 ก.ย. 2563
    เวลาออกอากาศ: ทุกวันเสาร์ - วันอาทิตย์ เวลา 08:00 น.
    นักแสดง:
    Jang Dong Yoon as Jun Nok Doo
    Kim Ji Woo as child Nok Doo
    Kim So Hyun as Dong Dong Joo / Yoo Eun Seo
    Jo Ye Rin as child Eun Seo
    Kang Tae Oh as Cha Yul Moo / Prince Neungyang
    Jun Jin Seo as child Yul Moo
    Jung Joon Ho as Kwang Hae
    Kim Tae Woo as Heo Yoon
    Yoon Yoo Sun as Chun Haeng Soo
    Lee Seung Joon as Jung Yoon Juh
    People around Nok Doo
    Lee Moon Shik as Hwang Jang Goon
    Song Gun Hee as Jun Hwang Tae
    Kim Seung Han as child Hwang Tae
    Park Da Yun as Aeng Doo
    Member of the Virtuous Women Corps
    Yoon Sa Bong as Kang Soon Nyeo
    Hwang Mi Young as Park Bok Nyeo
    Yoon Geum Sun Ah as Lee Mal Nyun
    Member of the Muwol Corps
    Jo Soo Hyang as Kim Ssook
    Yang So Min as Ahn Jung Sook
    Han Ga Rim as No Yun Boon
    Song Chae Yoon as Min Deul Re
    Supporting Cast
    Go Gun Han as Yun Geun
    Hwang In Yup as Park Dan Ho
    Lee Joo Bin as Mae Hwa Soo
    Seo Yi Ahn as widow Kim
    Park Min Jung as Queen Yu (Nok Doo's mother)
    Oh Ha Nui as Queen Inmok
    Cameos
    Lee Ho Jae as the old man who threw the stone at the king
    Jung Yi Rang as inn owner
    Park Chul Min as Park Jong Chil
    Jung Jin as the chief royal secretary
    Sysopsis: สร้างจากเว็บตูน ชื่อ นกดูจอน โดยนักเขียน ฮเยจินยัง ซึ่งมีการเผยแพร่ตั้งแต่ ธันวาคม ปี 2014 จนถึงกรกฎาคมปี 2018 ผ่านช่องทาง Comic dot naver.com
    เรื่องราวในสมัยราชวงศ์โชซอน เกี่ยวกับชายคนหนึ่งที่ปลอมตัวเป็นผู้หญิง และเข้าไปในหมู่บ้านลึกลับที่มีแต่หญิงสาวเท่านั้น โดยที่ตัวเอกของเรื่อง ผู้หญิงอีกคนเป็นหญิงสาวที่ไม่อยากเป็นกีแซง จุนนกดู รับบทโดย (จางดงยุน) เป็นบุตรชายของตระกูลขุนนาง เขาไม่อยากถูกครอบครัวจับคลุมถุงชนให้แต่งงานกับหญิง สาวที่ไม่รู้จัก และเพื่อหลีกเลี่ยงการแต่งงานนั้น เขาได้หนีออกจากบ้านและปลอมตัวเป็นหญิงสาวเข้าไปในหม ู่บ้านแม่หม้าย ที่นั่นเขาได้พบกับ ทงดงจู รับบทโดย (คิมโซฮยอน) ผู้ซึ่งกำลังฝึกเตรียมตัวจะเป็นกีแซง และเธอก็ไม่อยากเป็นกีแซงเช่นกัน แต่เธอไม่มีทางเลือกและบังเอิญเธอรู้ความลับว่าจุนนก ดู ไม่ใช่ผู้หญิงและเธอได้รับฟังเหตุผลที่เขาต้องมาหลบซ ่อนในหมู่บ้านแม่หม้ายเช้าได้ช่วยเธอไว้จากสถานการณ์ อันตรายจะกลายเป็นลูกสาวที่จุนนกดูรับเลี้ยงและเธอตั ดสินใจที่จะอยู่ในหมู่บ้านแม่หม้ายเป็นเวลา 1 ปี มาตืดามชมกันได้ในซีรี่ย์เกาหลี The Tale of Nokdu นกดู ผมเป็นแม่หม้ายครับ
    Credit: franky

    General
    Unique ID : 242165380107837107858880497657317548162 (0xB62F5B0F70E17B62699EF074B901E082)
    Complete name : L:The Tale of Nokdu นกดู ผมเป็นแม่หม้ายครับThe.Tale.of.Nokdu.2019.S01E08.10 80p.NF.WEB-DL.DDP2.0.x264.mkv
    Format : Matroska
    Format version : Version 4
    File size : 2.92 GiB
    Duration : 1 h 8 min
    Overall bit rate mode : Variable
    Overall bit rate : 6 117 kb/s
    Encoded date : UTC 2020-09-15 07:55:31
    Writing application : mkvmerge v19.0.0 ('Brave Captain') 64-bit
    Writing library : libebml v1.3.5 + libmatroska v1.4.8

    Video
    ID : 1
    Format : AVC
    Format/Info : Advanced Video Codec
    Format profile : [email protected]
    Format settings : CABAC / 3 Ref Frames
    Format settings, CABAC : Yes
    Format settings, Reference fra : 3 frames
    Codec ID : V_MPEG4/ISO/AVC
    Duration : 1 h 8 min
    Bit rate mode : Variable
    Bit rate : 5 800 kb/s
    Maximum bit rate : 8 700 kb/s
    Width : 1 920 pixels
    Height : 1 080 pixels
    Display aspect ratio : 16:9
    Frame rate mode : Constant
    Frame rate : 23.976 (24000/1001) FPS
    Color space : YUV
    Chroma subsampling : 4:2:0
    Bit depth : 8 bits
    Scan type : Progressive
    Bits/(Pixel*Frame) : 0.117
    Stream size : 2.76 GiB (95%)
    Writing library : x264 core 148 r2717 0d2410d
    Encoding settings : cabac=1 / ref=3 / deblock=1:0:0 / analyse=0x1:0x111 / me=umh / subme=10 / psy=1 / psy_rd=1.00:0.00 / mixed_ref=1 / me_range=24 / chroma_me=1 / trellis=2 / 8x8dct=0 / cqm=0 / deadzone=21,11 / fast_pskip=1 / chroma_qp_offset=-2 / threads=8 / lookahead_threads=1 / sliced_threads=0 / nr=0 / decimate=1 / interlaced=0 / bluray_compat=0 / stitchable=1 / constrained_intra=0 / bframes=2 / b_pyramid=0 / b_adapt=2 / b_bias=0 / direct=3 / weightb=1 / open_gop=0 / weightp=2 / keyint=250 / keyint_min=23 / scenecut=0 / intra_refresh=0 / rc_lookahead=48 / rc=2pass / mbtree=1 / bitrate=5800 / ratetol=1.0 / qcomp=0.50 / qpmin=6 / qpmax=51 / qpstep=4 / cplxblur=20.0 / qblur=0.5 / vbv_maxrate=8700 / vbv_bufsize=11600 / nal_hrd=vbr / filler=0 / ip_ratio=1.40 / aq=1:1.00
    Default : Yes
    Forced : No

    Audio #1
    ID : 2
    Format : AC-3
    Format/Info : Audio Coding 3
    Commercial name : Dolby Digital
    Codec ID : A_AC3
    Duration : 1 h 8 min
    Bit rate mode : Constant
    Bit rate : 192 kb/s
    Channel(s) : 2 channels
    Channel layout : L R
    Sampling rate : 48.0 kHz
    Frame rate : 31.250 FPS (1536 SPF)
    Bit depth : 16 bits
    Compression mode : Lossy
    Stream size : 93.7 MiB (3%)
    Language : Thai
    Service kind : Complete Main
    Default : Yes
    Forced : No

    Audio #2
    ID : 3
    Format : E-AC-3
    Format/Info : Enhanced AC-3
    Commercial name : Dolby Digital Plus
    Codec ID : A_EAC3
    Duration : 1 h 8 min
    Bit rate mode : Constant
    Bit rate : 128 kb/s
    Channel(s) : 2 channels
    Channel layout : L R
    Sampling rate : 48.0 kHz
    Frame rate : 31.250 FPS (1536 SPF)
    Compression mode : Lossy
    Stream size : 62.5 MiB (2%)
    Language : Korean
    Service kind : Complete Main
    Default : No
    Forced : No

    Text #1
    ID : 4
    Format : UTF-8
    Codec ID : S_TEXT/UTF8
    Codec ID/Info : UTF-8 Plain Text
    Duration : 1 h 7 min
    Bit rate : 100 b/s
    Count of elements : 681
    Stream size : 49.7 KiB (0%)
    Language : Thai
    Default : Yes
    Forced : No

    Text #2
    ID : 5
    Format : PGS
    Muxing mode : zlib
    Codec ID : S_HDMV/PGS
    Codec ID/Info : Picture based subtitle format used on BDs/HD-DVDs
    Duration : 1 h 7 min
    Bit rate : 18.8 kb/s
    Count of elements : 1362
    Stream size : 9.08 MiB (0%)
    Language : Thai
    Default : No
    Forced : No



    1
    http://www.filecondo.com/dl.php?f=Mfa58e1KiPNh
    2
    http://www.filecondo.com/dl.php?f=R983291KiPO4
    3
    http://www.filecondo.com/dl.php?f=K75c3d1KiPPh
    4
    http://www.filecondo.com/dl.php?f=y967951KiPQd
    5
    http://www.filecondo.com/dl.php?f=M6a7d91KiPR8
    6
    http://www.filecondo.com/dl.php?f=J5b4b41KiPS2
    7
    http://www.filecondo.com/dl.php?f=P13f811KiPT2
    8
    http://www.filecondo.com/dl.php?f=s9c5171KiPUa
    9
    http://www.filecondo.com/dl.php?f=d5d69d1KkhlV
    10
    http://www.filecondo.com/dl.php?f=I0703f1KkhmT
    11
    http://www.filecondo.com/dl.php?f=td39fd1KncrG
    12
    http://www.filecondo.com/dl.php?f=oc1b6f1KncsC
    13
    http://www.filecondo.com/dl.php?f=0d4d9f1KpE4q
    14
    http://www.filecondo.com/dl.php?f=f5018f1KpE5r
    15
    http://www.filecondo.com/dl.php?f=af03871KrSLM fix
    16
    http://www.filecondo.com/dl.php?f=kcb0e41KrSME

  2. #2
    Administrators รูปส่วนตัว Duckload.us
    สมัครเมื่อ
    Dec 2010
    โพสต์
    119,944
    Thanks
    7
    Thanked 125,371 Times in 56,079 Posts
    [เกาหลี]-[The Tale of Nokdu นกดู ผมเป็นแม่หม้ายครับ Jang Dong Yoon, Kim So Hyun, Kang Tae Oh, Jung Joon Ho, Kim Tae Woo TH Ep.1-16 END]-HDTV.H.264.1080p. [From HD-TV]-[Sound:Thai/Korea]-[Sub:Thai]

  3. #3
    Senior Member
    สมัครเมื่อ
    Aug 2012
    โพสต์
    175
    Thanks
    0
    Thanked 0 Times in 0 Posts
    ขอบคุณมากครับ รบกวนตอนที่ 15 ด้วยครับ มันเป็นเรื่องอื่นครับ ขอบคุณมากครับ

  4. #4
    Junior Member
    สมัครเมื่อ
    Mar 2014
    โพสต์
    14
    Thanks
    0
    Thanked 0 Times in 0 Posts
    ตอนที่ 15 เป็น My sassy girl ครับ

  5. #5
    Senior Member
    สมัครเมื่อ
    Aug 2012
    โพสต์
    175
    Thanks
    0
    Thanked 0 Times in 0 Posts
    รบกวนแ้ก้ให้ด้วยนะครับ ขอบคุณมากครับ

  6. #6
    Junior Member
    สมัครเมื่อ
    Mar 2014
    โพสต์
    14
    Thanks
    0
    Thanked 0 Times in 0 Posts
    ช่วยแก้ไขตอนที่ 15 ให้ทีครับ มันเป็นเรื่อง My Sassy girl ไม่ใช่เรื่องนี้

  7. #7
    Junior Member
    สมัครเมื่อ
    Jun 2018
    โพสต์
    5
    Thanks
    0
    Thanked 0 Times in 0 Posts
    รบกวนแก้ไขตอนที่ 15 ให้ด้วย ขอบคุณมากครับ

  8. #8
    Senior Member
    สมัครเมื่อ
    Aug 2012
    โพสต์
    175
    Thanks
    0
    Thanked 0 Times in 0 Posts
    อย่าลืมแก้ตอนที่ 15 ด้วยนะครับ ขอบคุณมากครับ

  9. #9
    Administrators รูปส่วนตัว Duckload.us
    สมัครเมื่อ
    Dec 2010
    โพสต์
    119,944
    Thanks
    7
    Thanked 125,371 Times in 56,079 Posts
    อ้างอิง โพสต์ต้นฉบับโดยคุณ sangoun ดูโพสต์
    อย่าลืมแก้ตอนที่ 15 ด้วยนะครับ ขอบคุณมากครับ



    เรียนแจ้ง แก้ไขแล้วครับ

  10. #10
    Junior Member
    สมัครเมื่อ
    Jun 2018
    โพสต์
    5
    Thanks
    0
    Thanked 0 Times in 0 Posts
    ขอบคุณมากๆครับ

+ ตอบกลับกระทู้
หน้า 1 จากทั้งหมด 2 หน้า 1 2 หน้าสุดท้ายหน้าสุดท้าย

ข้อมูลกระทู้

Users Browsing this Thread

ในขณะนี้มี 1 ท่านดูกระทู้อยู่. (0 สมาชิกและ 1 ผู้เยี่ยมชม)

     

กฎการโพสต์ข้อความ

  • ท่าน ไม่สามารถ ตั้งกระทู้ใหม่ได้
  • ท่าน ไม่สามารถ ตอบกระทู้ได้
  • ท่าน ไม่สามารถ แนบไฟล์ได้
  • ท่าน ไม่สามารถ แก้ไขข้อความโพสต์ได้
  • BB code สถานะ เปิด
  • Smilies สถานะ เปิด
  • [IMG] สถานะ เปิด
  • HTML สถานะ ปิด