+ ตอบกลับกระทู้
หน้า 1 จากทั้งหมด 2 หน้า 1 2 หน้าสุดท้ายหน้าสุดท้าย
สรุปผลการค้นหา 1 ถึง 10 จากทั้งหมด 14
  1. #1
    Administrators รูปส่วนตัว Duckload.us
    สมัครเมื่อ
    Dec 2010
    โพสต์
    119,944
    Thanks
    7
    Thanked 125,371 Times in 56,079 Posts

    Lightbulb [เกาหลี]-[Doctor Prisoner คุกคลั่งแค้น Nam Goong Min, Nara, Kim Byung Chul, Choi Won Young, Park Eun Su, Kim Jung Nan TH Ep.1-16 END]-HDTV.H.264.1080p. [From HD-TV]-[Sound:Thai/Korea]-[Sub:Thai]




    ซีรี่ย์เกาหลี: Doctor Prisoner
    ชื่อภาษาไทย: คุกคลั่งแค้น
    ประเภท: Drama, medical
    จำนวนตอน: 16
    นำแสดงโดย: Nam Goong Min, Nara, Kim Byung Chul, Choi Won Young, Park Eun Su, Kim Jung Nan
    ผู้กำกับ: Hwang In Hyuk
    เขียนบทโดย: Park Kye Ok
    ออกอากาศทางสถานีโทรทัศน์: Viu
    เริ่มออกอากาศ: 22 สิงหาคม 2020
    เวลาออกอากาศ: ทุกวันเสาร์ - วันอาทิตย์ 08:00 น.
    นักแสดง:
    Nam Goong Min as Na Yi Je (38)
    Nara as Han So Geum (33)
    Kim Byung Chul as Sun Min Shik (48)
    Choi Won Young as Lee Jae Joon (42)
    Lee Da In as Lee Jae In (29)
    Park Eun Suk as Lee Jae Hwan (35)
    Kim Jung Nan as Oh Jung Hee (50)
    Jang Hyun Sung as Jung Ui Shik (43)
    The family
    Ha Young as Na Yi Hyun (28, Na Yi Je's younger sister)
    Ryeoun as Han Bit (30, Han So Geum's younger brother)
    Taegang Group
    Jin Hee Kyung as Mo Yi Ra (50s)
    Kim Dae Ryung as Choi Jung Woo (42)
    People around Sun Min Shik
    Jung In Kyum as Sun Min Joong (55)
    Chae Dong Hyun as Choi Dong Hoon (37)
    West Seoul Prison people
    Kang Shin Il as Kim Sang Choon (58)
    Jang Joon Nyung as Tae Choon Ho (30s)
    Kang Hong Suk as Shin Hyun Sang (30s)
    Nam Kyung Eup as Jung Min Je (70)
    Medical Department
    Lee Joon Hyuk as Ko Young Chul (42)
    Lee Min Young as Bok Hye Soo (38)
    Bae Yoon Kyung as Jung Se Jin (28)
    Lee Yong Joon as Hyun Jae Min (29)
    Lee Hyun Kyoon as Ham Gil Sun (38)
    Prison Official
    Park Soo Young as Oh Chul Min (45)
    Park Sung Geun as Kim Man Chul (53)
    Others
    Woo Mi Hwa as Kim Young Sun (Sun Min Shik's wife)
    Oh Dong Min as Moon Yong Sung
    Park Tae Sung as Ra Il Kwon
    Kang Ji Hoo as Prosecutor Kang
    Cameos
    Choi Duk Moon as Jang Min Suk (Na Yi Je's college senior)
    Lee Joo Seung as Kim Suk Woo (JH Steel chairman's son)
    Kim Ji Eun as Oh Min Jung
    Lee Jae Yong as Ahn Jin Chul
    Synopsis: บรรดาผู้มีอิทธิพลของเกาหลีไปรวมกันอยู่ที่ไหน น่าตลกที่คำตอบคือในคุก ทั้งเจ้าของบริษัทยักษ์ใหญ่ นักการเมือง คนมีชื่อเสียง ไปจนถึงคนยากจนไปรวมตัวกันอยู่ที่นั่น อาชญากรกว่า 60,000 คนที่เคยชินกับความรุนแรงมากกว่ากฎหมาย และเคยชินกับสังคมที่มีเงินคือมีอำนาจมาอาศัยรวมกันอ ยู่ในพื้นที่ที่ไร้กฎหมาย มีชายคนหนึ่งปรากฏตัวท่ามกลางความวุ่นวายนั้น เขาผ่านการสอบใบประกอบวิชาชีพแพทย์ด้วยคะแนนสูงสุด เขาจบโรงเรียนแพทย์ท้องถิ่น แต่กลับไต่เต้าจนกลายเป็นมือหนึ่งของศูนย์การแพทย์ฉุ กเฉินแทกัง โรงพยาบาลมหาวิทยาลัยชื่อดังของโซล แต่กลับถูกไล่ออกมาเพราะมีปัญหากับลูกชายของท่านประธ าน เมื่อเขาสมัครตำแหน่งผู้อำนวยการการแพทย์ของเรือนจำ คนต่างคิดว่าเขาเป็นนักบุญหรือไม่ก็คงเป็นบ้าไปแล้ว แต่ความจริงแล้วไม่ใช่ทั้งสองอย่าง ตลอดระยะเวลาสามปีที่เขาซ่อนตัว เขาได้เรียนรู้บทเรียนหนึ่ง สำหรับชายคนนึงที่ไม่ได้มีคนคอยช่วยเหลือ เขาต้องมีเส้นสายใหญ่ ๆ ที่จะช่วยให้ประสบความสำเร็จได้ และสถานที่ที่รวมเส้นสายที่เขาต้องการก็คือศูนย์การแ พทย์ในเรือนจำ เรื่องราวนี้ไม่ใช่การแก้แค้นหรือละครการแพทย์ในเรือ นจำ แต่เป็นเรื่องราวของผู้ชายที่ต้องการประสบความสำเร็จ เขาต้องใช้ทุกวิธีที่คนเราใช้โกงในชีวิตจริง การได้เห็นเขาตอบแทนเหล่าปีศาจด้วยวิธีเดียวกันคงทำใ ห้เรามีความสุขอย่างบอกไม่ถูก มาติดตามชมกันได้ในซีรี่ย์เกาหลี Doctor Prisoner คุกคลั่งแค้น
    Credit: franky

    General
    Unique ID : 75538586339271095783584325852939624705 (0x38D433D99454088D9670844E30C72101)
    Complete name : Loctor Prisoner คุกคลั่งแค้นDoctor.Prisoner.2019.S01E04.1080p.WEB-DL.Viu.AAC.H.264.mkv
    Format : Matroska
    Format version : Version 4
    File size : 883 MiB
    Duration : 59 min 30 s
    Overall bit rate mode : Variable
    Overall bit rate : 2 074 kb/s
    Encoded date : UTC 2020-08-30 07:01:16
    Writing application : mkvmerge v19.0.0 ('Brave Captain') 64-bit
    Writing library : libebml v1.3.5 + libmatroska v1.4.8

    Video
    ID : 1
    Format : AVC
    Format/Info : Advanced Video Codec
    Format profile : [email protected]
    Format settings : CABAC / 4 Ref Frames
    Format settings, CABAC : Yes
    Format settings, Reference fra : 4 frames
    Format settings, GOP : M=4, N=25
    Codec ID : V_MPEG4/ISO/AVC
    Duration : 59 min 30 s
    Bit rate mode : Variable
    Bit rate : 1 869 kb/s
    Maximum bit rate : 4 500 kb/s
    Width : 1 920 pixels
    Height : 1 080 pixels
    Display aspect ratio : 16:9
    Frame rate mode : Constant
    Frame rate : 25.000 FPS
    Color space : YUV
    Chroma subsampling : 4:2:0
    Bit depth : 8 bits
    Scan type : Progressive
    Bits/(Pixel*Frame) : 0.036
    Stream size : 796 MiB (90%)
    Writing library : VOLO1.4.1
    Default : Yes
    Forced : No

    Audio #1
    ID : 2
    Format : AAC LC
    Format/Info : Advanced Audio Codec Low Complexity
    Codec ID : A_AAC-2
    Duration : 59 min 30 s
    Bit rate : 96.0 kb/s
    Channel(s) : 2 channels
    Channel layout : L R
    Sampling rate : 48.0 kHz
    Frame rate : 46.875 FPS (1024 SPF)
    Compression mode : Lossy
    Delay relative to video : -43 ms
    Stream size : 40.9 MiB (5%)
    Language : Thai
    Default : Yes
    Forced : No

    Audio #2
    ID : 3
    Format : AAC LC
    Format/Info : Advanced Audio Codec Low Complexity
    Codec ID : A_AAC-2
    Duration : 59 min 30 s
    Bit rate : 96.0 kb/s
    Channel(s) : 2 channels
    Channel layout : L R
    Sampling rate : 48.0 kHz
    Frame rate : 46.875 FPS (1024 SPF)
    Compression mode : Lossy
    Delay relative to video : -23 ms
    Stream size : 40.9 MiB (5%)
    Language : Korean
    Default : No
    Forced : No

    Text #1
    ID : 4
    Format : UTF-8
    Codec ID : S_TEXT/UTF8
    Codec ID/Info : UTF-8 Plain Text
    Duration : 59 min 27 s
    Bit rate : 158 b/s
    Count of elements : 924
    Stream size : 69.0 KiB (0%)
    Language : Thai
    Default : Yes
    Forced : No

    Text #2
    ID : 5
    Format : PGS
    Muxing mode : zlib
    Codec ID : S_HDMV/PGS
    Codec ID/Info : Picture based subtitle format used on BDs/HD-DVDs
    Duration : 59 min 30 s
    Bit rate : 24.3 kb/s
    Count of elements : 1848
    Stream size : 10.3 MiB (1%)
    Language : Thai
    Default : No
    Forced : No



    1
    http://www.filecondo.com/dl.php?f=27b88d1KiRvi
    2
    http://www.filecondo.com/dl.php?f=jee37e1KiRwg
    3
    http://www.filecondo.com/dl.php?f=Db525a1KiRxk
    4
    http://www.filecondo.com/dl.php?f=2818eb1KiRyh
    5
    http://www.filecondo.com/dl.php?f=9457681KjXVS fix
    6
    http://www.filecondo.com/dl.php?f=5f162e1KjXWQ fix
    7
    http://www.filecondo.com/dl.php?f=l8584f1Kivr3
    8
    http://www.filecondo.com/dl.php?f=kbfaec1Kivs0
    9
    http://www.filecondo.com/dl.php?f=ye42361KjWaA
    10
    http://www.filecondo.com/dl.php?f=Jbfd021KjWby
    11
    http://www.filecondo.com/dl.php?f=w909b31KncnH
    12
    http://www.filecondo.com/dl.php?f=f6f5a91KncoE
    13
    http://www.filecondo.com/dl.php?f=fd3c461KpDYo
    14
    http://www.filecondo.com/dl.php?f=x9274a1KpDZm
    15
    http://www.filecondo.com/dl.php?f=38b71d1KrSGI fix
    16
    http://www.filecondo.com/dl.php?f=C853221KrSHH

    แก้ไข Ep 2 7 8 9
    http://www.filecondo.com/dl.php?f=Sb12041Kwgti

  2. The Following User Says Thank You to Duckload.us For This Useful Post:

    thatsna4555555 (10-16-2020)

  3. #2
    Senior Member
    สมัครเมื่อ
    Aug 2012
    โพสต์
    175
    Thanks
    0
    Thanked 0 Times in 0 Posts
    ขอบคุณมากครับ รบกวนตอนที่ 5 และ 6 ด้วยครับ โหลดมาเป็นเรื่องอื่นครับ

  4. #3
    Junior Member
    สมัครเมื่อ
    Dec 2019
    โพสต์
    15
    Thanks
    0
    Thanked 0 Times in 0 Posts
    รบกวนแก้ไขไฟล์ที่ 5 กับ 6 ให้หน่อยครับ มันเป็นเรื่องอื่น

  5. #4
    Administrators รูปส่วนตัว Duckload.us
    สมัครเมื่อ
    Dec 2010
    โพสต์
    119,944
    Thanks
    7
    Thanked 125,371 Times in 56,079 Posts
    อ้างอิง โพสต์ต้นฉบับโดยคุณ kyaoon ดูโพสต์
    รบกวนแก้ไขไฟล์ที่ 5 กับ 6 ให้หน่อยครับ มันเป็นเรื่องอื่น
    เรียนแจ้ง แก้ไขแล้วครับ

  6. #5
    Administrators รูปส่วนตัว Duckload.us
    สมัครเมื่อ
    Dec 2010
    โพสต์
    119,944
    Thanks
    7
    Thanked 125,371 Times in 56,079 Posts
    [เกาหลี]-[Doctor Prisoner คุกคลั่งแค้น Nam Goong Min, Nara, Kim Byung Chul, Choi Won Young, Park Eun Su, Kim Jung Nan TH Ep.1-16 END]-HDTV.H.264.1080p. [From HD-TV]-[Sound:Thai/Korea]-[Sub:Thai]

  7. #6
    Senior Member
    สมัครเมื่อ
    Aug 2012
    โพสต์
    175
    Thanks
    0
    Thanked 0 Times in 0 Posts
    ขอบคุณมากครับ รบกวนตอนที่ 15 ด้วยครับ มันเป็นเรื่องอื่นครับ ขอบคุณครับ

  8. #7
    Senior Member
    สมัครเมื่อ
    Aug 2012
    โพสต์
    175
    Thanks
    0
    Thanked 0 Times in 0 Posts
    รบกวนแ้ก้ตอนที่ 15 ให้ด้วยนะครับ ขอบคุณมากครับ

  9. #8
    Junior Member
    สมัครเมื่อ
    Jun 2018
    โพสต์
    5
    Thanks
    0
    Thanked 0 Times in 0 Posts
    รบกวนแก้ไขตอนที่ 15 ให้ด้วย ขอบคุณมากครับ

  10. #9
    Senior Member
    สมัครเมื่อ
    Aug 2012
    โพสต์
    175
    Thanks
    0
    Thanked 0 Times in 0 Posts
    อย่าลืมแก้ตอนที่ 15 ด้วยนะครับ ขอบคุณมากครับ

  11. #10
    Junior Member
    สมัครเมื่อ
    Dec 2019
    โพสต์
    15
    Thanks
    0
    Thanked 0 Times in 0 Posts
    แก้ไขตอนที่ 15 ให้ด้วยครับ มันเป็นเรื่องอื่น ขอบคุณครับ

+ ตอบกลับกระทู้
หน้า 1 จากทั้งหมด 2 หน้า 1 2 หน้าสุดท้ายหน้าสุดท้าย

ข้อมูลกระทู้

Users Browsing this Thread

ในขณะนี้มี 1 ท่านดูกระทู้อยู่. (0 สมาชิกและ 1 ผู้เยี่ยมชม)

     

กฎการโพสต์ข้อความ

  • ท่าน ไม่สามารถ ตั้งกระทู้ใหม่ได้
  • ท่าน ไม่สามารถ ตอบกระทู้ได้
  • ท่าน ไม่สามารถ แนบไฟล์ได้
  • ท่าน ไม่สามารถ แก้ไขข้อความโพสต์ได้
  • BB code สถานะ เปิด
  • Smilies สถานะ เปิด
  • [IMG] สถานะ เปิด
  • HTML สถานะ ปิด