+ ตอบกลับกระทู้
สรุปผลการค้นหา 1 ถึง 4 จากทั้งหมด 4
  1. #1
    Administrators รูปส่วนตัว Duckload.us
    สมัครเมื่อ
    Dec 2010
    โพสต์
    120,003
    Thanks
    7
    Thanked 125,419 Times in 56,094 Posts

    Angry [ฝรั่ง]-[พากย์ไทยมาใหม่] Crooked House (2017) : คดีบ้านพิกล คนวิปริต [จากผู้เขียน Murder on the Orient Express] -Blu-ray.H.264.1080p. [Modified]-[พากย์ไทย-พากย์อังกฤษ-บรรยายอังกฤษ]



    การฆาตกรรมมหาเศรษฐีสูงวัย ลีโอนิเดส ที่เป็นผู้มีอิทธิพลและมีความปรารถนา ที่จะให้ทุกคนในครอบครัวมาอยู่ร่วมกันในบ้าน ที่มีรูปทรงบิดเบี้ยวแปลกประหลาด ที่ตนได้ก่อร่างสร้างมาด้วยความภาคภูมิใจ แต่คุณจะเชื่อหรือไม่ว่า เมื่อสืบสายวงศ์ตระกูลของเขาและภรรยาแล้ว จะพบว่ามีลักษณะนิสัยโหดเหี้ยม เจ้าเล่ห์ รวมทั้งความเฉลียวฉลาดอยู่ในนั้น

    Format : Matroska
    Format version : Version 4 / Version 2
    File size : 4.37 GiB
    Duration : 1 h 55 min
    Overall bit rate : 5 426 kb/s
    Encoded date : UTC 2020-06-24 15:42:52
    Writing application : mkvmerge v47.0.0 ('Black Flag') 64-bit
    Writing library : libebml v1.3.10 + libmatroska v1.5.2

    Video
    ID : 1
    Format : AVC
    Format/Info : Advanced Video Codec
    Format profile : [email protected]
    Format settings, CABAC : Yes
    Format settings, ReFrames : 4 frames
    Codec ID : V_MPEG4/ISO/AVC
    Duration : 1 h 55 min
    Bit rate : 4 500 kb/s
    Width : 1 920 pixels
    Height : 808 pixels
    Display aspect ratio : 2.40:1
    Frame rate mode : Constant
    Frame rate : 23.976 (24000/1001) FPS
    Color space : YUV
    Chroma subsampling : 4:2:0
    Bit depth : 8 bits
    Scan type : Progressive
    Bits/(Pixel*Frame) : 0.121
    Default : Yes
    Forced : No
    Color range : Limited
    Color primaries : BT.709
    Transfer characteristics : BT.709
    Matrix coefficients : BT.709

    Audio #1
    ID : 2
    Format : AC-3
    Format/Info : Audio Coding 3
    Mode extension : CM (complete main)
    Format settings, Endianness : Big
    Codec ID : A_AC3
    Duration : 1 h 55 min
    Bit rate mode : Constant
    Bit rate : 448 kb/s
    Channel(s) : 2 channels
    Channel positions : Front: L R
    Sampling rate : 44.1 kHz
    Frame rate : 28.711 FPS (1536 spf)
    Compression mode : Lossy
    Stream size : 369 MiB (8%)
    Language : Thai
    Default : Yes
    Forced : No

    Audio #2
    ID : 3
    Format : AC-3
    Format/Info : Audio Coding 3
    Mode extension : CM (complete main)
    Format settings, Endianness : Big
    Codec ID : A_AC3
    Duration : 1 h 55 min
    Bit rate mode : Constant
    Bit rate : 448 kb/s
    Channel(s) : 6 channels
    Channel positions : Front: L C R, Side: L R, LFE
    Sampling rate : 48.0 kHz
    Frame rate : 31.250 FPS (1536 spf)
    Compression mode : Lossy
    Stream size : 369 MiB (8%)
    Language : English
    Default : No
    Forced : No

    Text #1
    ID : 4
    Format : VobSub
    Muxing mode : zlib
    Codec ID : S_VOBSUB
    Codec ID/Info : Picture based subtitle format used on DVDs
    Duration : 1 h 46 min
    Bit rate : 12.2 kb/s
    Count of elements : 1479
    Stream size : 9.27 MiB (0%)
    Language : English
    Default : No
    Forced : No

    Text #2
    ID : 5
    Format : VobSub
    Muxing mode : zlib
    Codec ID : S_VOBSUB
    Codec ID/Info : Picture based subtitle format used on DVDs
    Duration : 1 h 48 min
    Bit rate : 13.0 kb/s
    Count of elements : 1662
    Stream size : 10.1 MiB (0%)
    Language : English
    Default : No
    Forced : No










    http://cornfile.com/rxmas9kfg0s7

  2. The Following 2 Users Say Thank You to Duckload.us For This Useful Post:

    amorn wichian (09-19-2020), Tatum03 (09-18-2020)

  3. #2
    Senior Member
    สมัครเมื่อ
    Jul 2013
    โพสต์
    1,316
    Thanks
    0
    Thanked 0 Times in 0 Posts
    ขอบคุรครับ

  4. #3
    Senior Member
    สมัครเมื่อ
    Oct 2013
    ที่อยู่
    Thailand
    โพสต์
    1,403
    Thanks
    1,271
    Thanked 0 Times in 0 Posts
    ขอบคุณมาก

  5. #4
    Senior Member
    สมัครเมื่อ
    Jul 2012
    โพสต์
    7,137
    Thanks
    0
    Thanked 0 Times in 0 Posts
    ขอบคุณมากจ้า

+ ตอบกลับกระทู้

ข้อมูลกระทู้

Users Browsing this Thread

ในขณะนี้มี 1 ท่านดูกระทู้อยู่. (0 สมาชิกและ 1 ผู้เยี่ยมชม)

     

กฎการโพสต์ข้อความ

  • ท่าน ไม่สามารถ ตั้งกระทู้ใหม่ได้
  • ท่าน ไม่สามารถ ตอบกระทู้ได้
  • ท่าน ไม่สามารถ แนบไฟล์ได้
  • ท่าน ไม่สามารถ แก้ไขข้อความโพสต์ได้
  • BB code สถานะ เปิด
  • Smilies สถานะ เปิด
  • [IMG] สถานะ เปิด
  • HTML สถานะ ปิด