+ ตอบกลับกระทู้
สรุปผลการค้นหา 1 ถึง 6 จากทั้งหมด 6
  1. #1
    Administrators รูปส่วนตัว Duckload.us
    สมัครเมื่อ
    Dec 2010
    โพสต์
    119,824
    Thanks
    7
    Thanked 125,278 Times in 56,033 Posts

    Thumbs up [ฝรั่ง]-[* ใหม่!! NETFLIX *] Jurassic World: Camp Cretaceous (2020) : จูราสสิค เวิลด์ ค่ายครีเทเชียส - Season 1 [เสียงไทย 5.1 + เสียงอังกฤษ 5.1] [บรรยายไทย + อังกฤษ] [เสียง + ซับไทย Master From Netflix + ซับ SRT , PGS]-WEB-DL.H.264.1080p



    Jurassic World Camp Cretaceous (จูราสสิค เวิลด์ ค่ายครีเทเชียส)

    ซีรีส์อนิเมชั่นออริจินัลจาก Netflix เรื่องราวของ วัยรุ่น 6 คน ซึ่งเข้าร่วมกิจกรรมค่ายผจญภัยบนอีกฟากหนึ่งของเกาะอ ิสลานูบลาร์ เมื่อกองทัพไดโนเสาร์ออกอาละวาดสร้างความหายนะบนเกาะ พวกเขาจำเป็นต้องร่วมมือกันเพื่อเอาชีวิตรอด ทำให้จากคนแปลกหน้ากลายเป็นเพื่อน และในที่สุดจากเพื่อนกลายเป็นครอบครัว[/SIZE]

    Format : Matroska
    Format version : Version 4
    File size : 1.35 GiB
    Duration : 24 min 18 s
    Overall bit rate mode : Variable
    Overall bit rate : 7 923 kb/s
    Movie name : Jurassic.World.Camp.Cretaceous.S01E01.1080p.NF.WEB-DL.DDP5.1.x264_SkiesIT
    Encoded date : UTC 2020-09-18 13:07:25
    Writing application : mkvmerge v49.0.0 ('Sick Of Losing Soulmates') 64-bit
    Writing library : libebml v1.4.0 + libmatroska v1.6.1

    Video
    ID : 1
    Format : AVC
    Format/Info : Advanced Video Codec
    Format profile : [email protected]
    Format settings : CABAC / 3 Ref Frames
    Format settings, CABAC : Yes
    Format settings, Reference frames : 3 frames
    Codec ID : V_MPEG4/ISO/AVC
    Duration : 24 min 18 s
    Bit rate mode : Variable
    Bit rate : 6 810 kb/s
    Maximum bit rate : 10.2 Mb/s
    Width : 1 920 pixels
    Height : 1 080 pixels
    Display aspect ratio : 16:9
    Frame rate mode : Constant
    Frame rate : 23.976 (24000/1001) FPS
    Color space : YUV
    Chroma subsampling : 4:2:0
    Bit depth : 8 bits
    Scan type : Progressive
    Bits/(Pixel*Frame) : 0.137
    Stream size : 1.12 GiB (83%)
    Title : Jurassic.World.Camp.Cretaceous.S01E01.1080p.NF.WEB-DL.DDP5.1.x264_SkiesIT
    Writing library : x264 core 148 r2722 1b0121b
    Encoding settings : cabac=1 / ref=3 / deblock=1:0:0 / analyse=0x1:0x111 / me=umh / subme=10 / psy=1 / psy_rd=1.00:0.00 / mixed_ref=1 / me_range=24 / chroma_me=1 / trellis=2 / 8x8dct=0 / cqm=0 / deadzone=21,11 / fast_pskip=1 / chroma_qp_offset=-2 / threads=6 / lookahead_threads=1 / sliced_threads=0 / nr=0 / decimate=1 / interlaced=0 / bluray_compat=0 / stitchable=1 / constrained_intra=0 / bframes=2 / b_pyramid=0 / b_adapt=2 / b_bias=0 / direct=3 / weightb=1 / open_gop=0 / weightp=2 / keyint=250 / keyint_min=23 / scenecut=0 / intra_refresh=0 / rc_lookahead=48 / rc=2pass / mbtree=1 / bitrate=6810 / ratetol=1.0 / qcomp=0.50 / qpmin=6 / qpmax=51 / qpstep=4 / cplxblur=20.0 / qblur=0.5 / vbv_maxrate=10215 / vbv_bufsize=13620 / nal_hrd=vbr / filler=0 / ip_ratio=1.40 / aq=1:1.00
    Language : English
    Default : Yes
    Forced : No

    Audio #1
    ID : 2
    Format : E-AC-3
    Format/Info : Enhanced AC-3
    Commercial name : Dolby Digital Plus
    Codec ID : A_EAC3
    Duration : 24 min 18 s
    Bit rate mode : Constant
    Bit rate : 640 kb/s
    Channel(s) : 6 channels
    Channel layout : L R C LFE Ls Rs
    Sampling rate : 48.0 kHz
    Frame rate : 31.250 FPS (1536 SPF)
    Compression mode : Lossy
    Stream size : 111 MiB (8%)
    Language : English
    Service kind : Complete Main
    Default : No
    Forced : No

    Audio #2
    ID : 3
    Format : E-AC-3
    Format/Info : Enhanced AC-3
    Commercial name : Dolby Digital Plus
    Codec ID : A_EAC3
    Duration : 24 min 18 s
    Bit rate mode : Constant
    Bit rate : 640 kb/s
    Channel(s) : 6 channels
    Channel layout : L R C LFE Ls Rs
    Sampling rate : 48.0 kHz
    Frame rate : 31.250 FPS (1536 SPF)
    Compression mode : Lossy
    Stream size : 111 MiB (8%)
    Language : Thai
    Service kind : Complete Main
    Default : Yes
    Forced : No

    Text #1
    ID : 4
    Format : UTF-8
    Codec ID : S_TEXT/UTF8
    Codec ID/Info : UTF-8 Plain Text
    Duration : 22 min 34 s
    Bit rate : 110 b/s
    Count of elements : 262
    Stream size : 18.3 KiB (0%)
    Title : Thai SRT From Netflix
    Language : Thai
    Default : Yes
    Forced : No

    Text #2
    ID : 5
    Format : UTF-8
    Codec ID : S_TEXT/UTF8
    Codec ID/Info : UTF-8 Plain Text
    Duration : 19 min 55 s
    Bit rate : 3 b/s
    Count of elements : 12
    Stream size : 534 Bytes (0%)
    Title : Thai SRT From Netflix Forced
    Language : Thai
    Default : No
    Forced : No

    Text #3
    ID : 6
    Format : UTF-8
    Codec ID : S_TEXT/UTF8
    Codec ID/Info : UTF-8 Plain Text
    Duration : 22 min 39 s
    Bit rate : 64 b/s
    Count of elements : 358
    Stream size : 10.7 KiB (0%)
    Title : English SRT
    Language : English
    Default : No
    Forced : No

    Text #4
    ID : 7
    Format : PGS
    Muxing mode : zlib
    Codec ID : S_HDMV/PGS
    Codec ID/Info : Picture based subtitle format used on BDs/HD-DVDs
    Duration : 22 min 34 s
    Bit rate : 33.5 kb/s
    Count of elements : 524
    Stream size : 5.40 MiB (0%)
    Title : Thai PGS [Angsana]
    Language : Thai
    Default : No
    Forced : No

    Text #5
    ID : 8
    Format : PGS
    Muxing mode : zlib
    Codec ID : S_HDMV/PGS
    Codec ID/Info : Picture based subtitle format used on BDs/HD-DVDs
    Duration : 22 min 34 s
    Bit rate : 33.5 kb/s
    Count of elements : 524
    Stream size : 5.40 MiB (0%)
    Title : Thai PGS [Angsana Yellow]
    Language : Thai
    Default : No
    Forced : No

    Text #6
    ID : 9
    Format : PGS
    Muxing mode : zlib
    Codec ID : S_HDMV/PGS
    Codec ID/Info : Picture based subtitle format used on BDs/HD-DVDs
    Duration : 22 min 34 s
    Bit rate : 33.0 kb/s
    Count of elements : 524
    Stream size : 5.32 MiB (0%)
    Title : Thai PGS [Sarabun]
    Language : Thai
    Default : No
    Forced : No

    Text #7
    ID : 10
    Format : PGS
    Muxing mode : zlib
    Codec ID : S_HDMV/PGS
    Codec ID/Info : Picture based subtitle format used on BDs/HD-DVDs
    Duration : 22 min 34 s
    Bit rate : 33.0 kb/s
    Count of elements : 524
    Stream size : 5.32 MiB (0%)
    Title : Thai PGS [Sarabun Yellow]
    Language : Thai
    Default : No
    Forced : No

    Text #8
    ID : 11
    Format : PGS
    Muxing mode : zlib
    Codec ID : S_HDMV/PGS
    Codec ID/Info : Picture based subtitle format used on BDs/HD-DVDs
    Duration : 22 min 39 s
    Bit rate : 40.0 kb/s
    Count of elements : 716
    Stream size : 6.49 MiB (0%)
    Title : English PGS
    Language : English
    Default : No
    Forced : No












    Download: filecondo
    1 http://www.filecondo.com/dl.php?f=X6f2651KjzUC
    2 http://www.filecondo.com/dl.php?f=fe3f741KjzVC
    3 http://www.filecondo.com/dl.php?f=Uee7501KjzWx
    4 http://www.filecondo.com/dl.php?f=x5d70a1KjzXu
    5 http://www.filecondo.com/dl.php?f=W439d51KjzYu
    6 http://www.filecondo.com/dl.php?f=E38df71KjzZs
    7 http://www.filecondo.com/dl.php?f=M71eba1KjA0p
    8 http://www.filecondo.com/dl.php?f=a2ab201KjA1m

    Download: cornfile
    Jurassic.World.Camp.Cretaceous.S01E01.1080p.NF.WEB-DL.DDP5.1.x264_SkiesIT.mkv - 1.3 GB
    Jurassic.World.Camp.Cretaceous.S01E02.1080p.NF.WEB-DL.DDP5.1.x264_SkiesIT.mkv - 1.2 GB
    Jurassic.World.Camp.Cretaceous.S01E03.1080p.NF.WEB-DL.DDP5.1.x264_SkiesIT.mkv - 1.0 GB
    Jurassic.World.Camp.Cretaceous.S01E04.1080p.NF.WEB-DL.DDP5.1.x264_SkiesIT.mkv - 1.1 GB
    Jurassic.World.Camp.Cretaceous.S01E05.1080p.NF.WEB-DL.DDP5.1.x264_SkiesIT.mkv - 1.1 GB
    Jurassic.World.Camp.Cretaceous.S01E06.1080p.NF.WEB-DL.DDP5.1.x264_SkiesIT.mkv - 1.3 GB
    Jurassic.World.Camp.Cretaceous.S01E07.1080p.NF.WEB-DL.DDP5.1.x264_SkiesIT.mkv - 911.8 MB
    Jurassic.World.Camp.Cretaceous.S01E08.1080p.NF.WEB-DL.DDP5.1.x264_SkiesIT.mkv - 1.0 GB

  2. The Following 3 Users Say Thank You to Duckload.us For This Useful Post:

    jackjangri (09-28-2020), thatsna4555555 (09-21-2020), Wesker_TOT (09-20-2020)

  3. #2
    Senior Member
    สมัครเมื่อ
    Jul 2013
    โพสต์
    1,288
    Thanks
    0
    Thanked 0 Times in 0 Posts
    ขอบคุณครับ

  4. #3
    Senior Member
    สมัครเมื่อ
    Dec 2013
    โพสต์
    2,424
    Thanks
    4,349
    Thanked 0 Times in 0 Posts
    ขอบคุณนะครับ...

  5. #4
    Senior Member
    สมัครเมื่อ
    May 2012
    โพสต์
    681
    Thanks
    0
    Thanked 0 Times in 0 Posts
    ขอบคุณครับ

  6. #5
    Senior Member
    สมัครเมื่อ
    Dec 2011
    โพสต์
    2,381
    Thanks
    0
    Thanked 0 Times in 0 Posts
    ขอบคุณค่ะ

  7. #6
    Senior Member
    สมัครเมื่อ
    Jul 2012
    โพสต์
    7,124
    Thanks
    0
    Thanked 0 Times in 0 Posts
    ขอบคุณมากจ้า

+ ตอบกลับกระทู้

ข้อมูลกระทู้

Users Browsing this Thread

ในขณะนี้มี 1 ท่านดูกระทู้อยู่. (0 สมาชิกและ 1 ผู้เยี่ยมชม)

     

กฎการโพสต์ข้อความ

  • ท่าน ไม่สามารถ ตั้งกระทู้ใหม่ได้
  • ท่าน ไม่สามารถ ตอบกระทู้ได้
  • ท่าน ไม่สามารถ แนบไฟล์ได้
  • ท่าน ไม่สามารถ แก้ไขข้อความโพสต์ได้
  • BB code สถานะ เปิด
  • Smilies สถานะ เปิด
  • [IMG] สถานะ เปิด
  • HTML สถานะ ปิด