+ ตอบกลับกระทู้
สรุปผลการค้นหา 1 ถึง 2 จากทั้งหมด 2
  1. #1
    Administrators รูปส่วนตัว Duckload.us
    สมัครเมื่อ
    Dec 2010
    โพสต์
    119,935
    Thanks
    7
    Thanked 125,352 Times in 56,072 Posts

    Angry [ฝรั่ง]-Body Cam (2020) - [Soundtrack บรรยายไทย+อังกฤษ] 1080p.WEB-DL.x264




    เรเน่ (แมรี่ เจ. ไบลจ์) ตำรวจสายตรวจได้รับแจ้งเหตุตำรวจถูกฆาตกรรม เมื่อเธอตรวจสอบในกล้องติดตามตัวของเพื่อนตำรวจที่เส ียชีวิต เธอก็พบว่าต้นเหตุอาจเป็นบางสิ่งที่เหนือธรรมชาติที่ อยู่ในชุดเสื้อกันฝน หน่วยของเธอดูเหมือนไม่มีใครเชื่อเรื่องนี้ แต่เมื่อมีตำรวจถูกฆ่าตายอีก เธอกับ แดนนี่ (แน็ต วูล์ฟ) ตำรวจคู่หูก็เริ่มสงสัยว่ามีบางสิ่งอาจพุ่งเป้าเล่นง านตำรวจในหน่วยของเธอ ทำให้เธอต้องแข่งกับเวลาเพื่อสืบหาความจริงก่อนที่ทุ กอย่างจะสายเกินไป


    Duration : 1 h 36 min
    Overall bit rate : 5 238 kb/s
    Encoded date : UTC 2020-06-30 13:19:27
    Writing application : mkvmerge v48.0.0 ('Fortress Around Your Heart') 64-bit
    Writing library : libebml v1.4.0 + libmatroska v1.6.0
    Cover : Yes
    Attachments : cover

    Video
    ID : 1
    Format : AVC
    Format/Info : Advanced Video Codec
    Format profile : [email protected]
    Format settings : CABAC / 4 Ref Frames
    Format settings, CABAC : Yes
    Format settings, Reference : 4 frames
    Codec ID : V_MPEG4/ISO/AVC
    Duration : 1 h 36 min
    Bit rate mode : Constant
    Bit rate : 4 569 kb/s
    Nominal bit rate : 10 000 kb/s
    Width : 1 920 pixels
    Height : 800 pixels
    Display aspect ratio : 2.40:1
    Frame rate mode : Constant
    Frame rate : 23.976 (24000/1001) FPS
    Color space : YUV
    Chroma subsampling : 4:2:0
    Bit depth : 8 bits
    Scan type : Progressive
    Bits/(Pixel*Frame) : 0.124
    Stream size : 3.08 GiB (87%)
    Language : English
    Default : Yes
    Forced : No
    Color range : Limited
    Color primaries : BT.709
    Transfer characteristics : BT.709
    Matrix coefficients : BT.709

    Audio
    ID : 2
    Format : E-AC-3
    Format/Info : Enhanced AC-3
    Commercial name : Dolby Digital Plus
    Codec ID : A_EAC3
    Duration : 1 h 36 min
    Bit rate mode : Constant
    Bit rate : 640 kb/s
    Channel(s) : 6 channels
    Channel layout : L R C LFE Ls Rs
    Sampling rate : 48.0 kHz
    Frame rate : 31.250 FPS (1536 SPF)
    Compression mode : Lossy
    Stream size : 442 MiB (12%)
    Language : English
    Service kind : Complete Main
    Default : No
    Forced : No

    Text #1
    ID : 3
    Format : PGS
    Muxing mode : zlib
    Codec ID : S_HDMV/PGS
    Codec ID/Info : Picture based subtitle format used on BDs/HD-DVDs
    Duration : 1 h 29 min
    Bit rate : 38.0 kb/s
    Count of elements : 1982
    Stream size : 24.3 MiB (1%)
    Language : English
    Default : No
    Forced : No

    Text #2
    ID : 4
    Format : PGS
    Muxing mode : zlib
    Codec ID : S_HDMV/PGS
    Codec ID/Info : Picture based subtitle format used on BDs/HD-DVDs
    Duration : 1 h 36 min
    Bit rate : 24.5 kb/s
    Count of elements : 1418
    Stream size : 16.9 MiB (0%)
    Language : Thai
    Default : Yes
    Forced : No





    http://cornfile.com/5ajo8iptjjre

  2. #2
    Senior Member
    สมัครเมื่อ
    Jul 2013
    โพสต์
    1,299
    Thanks
    0
    Thanked 0 Times in 0 Posts
    ขอบคุณครับ

+ ตอบกลับกระทู้

ข้อมูลกระทู้

Users Browsing this Thread

ในขณะนี้มี 1 ท่านดูกระทู้อยู่. (0 สมาชิกและ 1 ผู้เยี่ยมชม)

     

กฎการโพสต์ข้อความ

  • ท่าน ไม่สามารถ ตั้งกระทู้ใหม่ได้
  • ท่าน ไม่สามารถ ตอบกระทู้ได้
  • ท่าน ไม่สามารถ แนบไฟล์ได้
  • ท่าน ไม่สามารถ แก้ไขข้อความโพสต์ได้
  • BB code สถานะ เปิด
  • Smilies สถานะ เปิด
  • [IMG] สถานะ เปิด
  • HTML สถานะ ปิด