+ ตอบกลับกระทู้
สรุปผลการค้นหา 1 ถึง 4 จากทั้งหมด 4
  1. #1
    Administrators รูปส่วนตัว Duckload.us
    สมัครเมื่อ
    Dec 2010
    โพสต์
    119,935
    Thanks
    7
    Thanked 125,352 Times in 56,072 Posts

    Angry [ฝรั่ง]-[* ใหม่!! NETFLIX *] Enola Holmes (2020) : เอโนลา โฮล์มส์ [เสียงไทย 5.1 + เสียงอังกฤษ 5.1 Atmos] [บรรยายไทย + อังกฤษ] [เสียง + ซับไทย Master From Netflix + ซับ SRT , PGS]-WEB-DL.H.264.1080p. [Modified]-[พากย์ไทย บรรยายไทย]




    เรื่องราวของ เอโนลา (มิลลี่ บ็อบบี้ บราวน์) น้องสาวคนเล็กของ เชอร์ล็อค (เฮนรี่ คาวิลล์) และ ไมครอฟต์ โฮล์มส์ (แซม แคลฟลิน) ที่กลายมาเป็นนักสืบยอดฝีมือด้วยตัวของเธอเอง ในวันเกิดครบรอบ 16 ปีของเธอ แม่ของเธอได้หายตัวไป ทำให้นักสืบวัยกระเตาะต้องลงมือสืบหาความจริงที่เกิด ขึ้น โดยมีพี่ชายทั้ง 2 คอยช่วยเหลือ แต่เหนือยิ่งกว่าการที่จะช่วยเหลือเธอพี่ชายทั้ง 2 กลับอยากจะส่งเธอกลับไปเรียนให้จบซะมากกว่า และแล้ว เอโนลา ก็ตัดสินใจหนีไปลอนดอนเพื่อตามหาแม่ ซึ่งนั่นทำให้เธอต้องเผชิญหน้ากับเหล่าตัวละครมากสีส ันในระหว่างที่ตามหาแม่ของเธอ

    Format : Matroska
    Format version : Version 4
    File size : 5.90 GiB
    Duration : 2 h 3 min
    Overall bit rate mode : Variable
    Overall bit rate : 6 813 kb/s
    Movie name : Enola.Holmes.2020.1080p.NF.WEB-DL.DDP5.1.Atmos.x264_SkiesIT
    Encoded date : UTC 2020-09-23 08:13:28
    Writing application : mkvmerge v49.0.0 ('Sick Of Losing Soulmates') 64-bit
    Writing library : libebml v1.4.0 + libmatroska v1.6.1

    Video
    ID : 1
    Format : AVC
    Format/Info : Advanced Video Codec
    Format profile : [email protected]
    Format settings : CABAC / 3 Ref Frames
    Format settings, CABAC : Yes
    Format settings, Reference frames : 3 frames
    Codec ID : V_MPEG4/ISO/AVC
    Duration : 2 h 3 min
    Bit rate mode : Variable
    Bit rate : 5 360 kb/s
    Maximum bit rate : 8 040 kb/s
    Width : 1 920 pixels
    Height : 1 080 pixels
    Display aspect ratio : 16:9
    Frame rate mode : Constant
    Frame rate : 24.000 FPS
    Color space : YUV
    Chroma subsampling : 4:2:0
    Bit depth : 8 bits
    Scan type : Progressive
    Bits/(Pixel*Frame) : 0.108
    Stream size : 4.60 GiB (78%)
    Title : Enola.Holmes.2020.1080p.NF.WEB-DL.DDP5.1.Atmos.x264_SkiesIT
    Writing library : x264 core 148 r2721 6d200cf
    Encoding settings : cabac=1 / ref=3 / deblock=1:0:0 / analyse=0x1:0x111 / me=umh / subme=10 / psy=1 / psy_rd=1.00:0.00 / mixed_ref=1 / me_range=24 / chroma_me=1 / trellis=2 / 8x8dct=0 / cqm=0 / deadzone=21,11 / fast_pskip=1 / chroma_qp_offset=-2 / threads=6 / lookahead_threads=1 / sliced_threads=0 / nr=0 / decimate=1 / interlaced=0 / bluray_compat=0 / stitchable=1 / constrained_intra=0 / bframes=2 / b_pyramid=0 / b_adapt=2 / b_bias=0 / direct=3 / weightb=1 / open_gop=0 / weightp=2 / keyint=250 / keyint_min=24 / scenecut=0 / intra_refresh=0 / rc_lookahead=48 / rc=2pass / mbtree=1 / bitrate=5360 / ratetol=1.0 / qcomp=0.50 / qpmin=6 / qpmax=51 / qpstep=4 / cplxblur=20.0 / qblur=0.5 / vbv_maxrate=8040 / vbv_bufsize=10720 / nal_hrd=vbr / filler=0 / ip_ratio=1.40 / aq=1:1.00
    Language : English
    Default : Yes
    Forced : No

    Audio #1
    ID : 2
    Format : E-AC-3 JOC
    Format/Info : Enhanced AC-3 with Joint Object Coding
    Commercial name : Dolby Digital Plus with Dolby Atmos
    Codec ID : A_EAC3
    Duration : 2 h 3 min
    Bit rate mode : Constant
    Bit rate : 768 kb/s
    Channel(s) : 6 channels
    Channel layout : L R C LFE Ls Rs
    Sampling rate : 48.0 kHz
    Frame rate : 31.250 FPS (1536 SPF)
    Compression mode : Lossy
    Stream size : 681 MiB (11%)
    Title : English
    Language : English
    Service kind : Complete Main
    Default : No
    Forced : No
    Complexity index : 16
    Number of dynamic objects : 15
    Bed channel count : 1 channel
    Bed channel configuration : LFE

    Audio #2
    ID : 3
    Format : E-AC-3
    Format/Info : Enhanced AC-3
    Commercial name : Dolby Digital Plus
    Codec ID : A_EAC3
    Duration : 2 h 3 min
    Bit rate mode : Constant
    Bit rate : 640 kb/s
    Channel(s) : 6 channels
    Channel layout : L R C LFE Ls Rs
    Sampling rate : 48.0 kHz
    Frame rate : 31.250 FPS (1536 SPF)
    Compression mode : Lossy
    Stream size : 567 MiB (9%)
    Title : Thai
    Language : Thai
    Service kind : Complete Main
    Default : Yes
    Forced : No

    Text #1
    ID : 4
    Format : UTF-8
    Codec ID : S_TEXT/UTF8
    Codec ID/Info : UTF-8 Plain Text
    Duration : 2 h 1 min
    Bit rate : 141 b/s
    Count of elements : 1617
    Stream size : 126 KiB (0%)
    Title : Thai SRT From Netflix
    Language : Thai
    Default : Yes
    Forced : No

    Text #2
    ID : 5
    Format : UTF-8
    Codec ID : S_TEXT/UTF8
    Codec ID/Info : UTF-8 Plain Text
    Duration : 2 h 1 min
    Bit rate : 4 b/s
    Count of elements : 62
    Stream size : 4.39 KiB (0%)
    Title : Thai SRT From Netflix Forced
    Language : Thai
    Default : No
    Forced : No

    Text #3
    ID : 6
    Format : UTF-8
    Codec ID : S_TEXT/UTF8
    Codec ID/Info : UTF-8 Plain Text
    Duration : 1 h 56 min
    Bit rate : 71 b/s
    Count of elements : 2067
    Stream size : 60.9 KiB (0%)
    Title : English SRT
    Language : English
    Default : No
    Forced : No

    Text #4
    ID : 7
    Format : PGS
    Muxing mode : zlib
    Codec ID : S_HDMV/PGS
    Codec ID/Info : Picture based subtitle format used on BDs/HD-DVDs
    Duration : 2 h 1 min
    Bit rate : 42.8 kb/s
    Count of elements : 3234
    Stream size : 37.4 MiB (1%)
    Title : Thai PGS [Angsana]
    Language : Thai
    Default : No
    Forced : No

    Text #5
    ID : 8
    Format : PGS
    Muxing mode : zlib
    Codec ID : S_HDMV/PGS
    Codec ID/Info : Picture based subtitle format used on BDs/HD-DVDs
    Duration : 2 h 1 min
    Bit rate : 42.8 kb/s
    Count of elements : 3234
    Stream size : 37.4 MiB (1%)
    Title : Thai PGS [Angsana Yellow]
    Language : Thai
    Default : No
    Forced : No

    Text #6
    ID : 9
    Format : PGS
    Muxing mode : zlib
    Codec ID : S_HDMV/PGS
    Codec ID/Info : Picture based subtitle format used on BDs/HD-DVDs
    Duration : 2 h 1 min
    Bit rate : 42.2 kb/s
    Count of elements : 3234
    Stream size : 36.8 MiB (1%)
    Title : Thai PGS [Sarabun]
    Language : Thai
    Default : No
    Forced : No

    Text #7
    ID : 10
    Format : PGS
    Muxing mode : zlib
    Codec ID : S_HDMV/PGS
    Codec ID/Info : Picture based subtitle format used on BDs/HD-DVDs
    Duration : 2 h 1 min
    Bit rate : 42.2 kb/s
    Count of elements : 3234
    Stream size : 36.8 MiB (1%)
    Title : Thai PGS [Sarabun Yellow]
    Language : Thai
    Default : No
    Forced : No

    Text #8
    ID : 11
    Format : PGS
    Muxing mode : zlib
    Codec ID : S_HDMV/PGS
    Codec ID/Info : Picture based subtitle format used on BDs/HD-DVDs
    Duration : 1 h 56 min
    Bit rate : 44.4 kb/s
    Count of elements : 4134
    Stream size : 37.0 MiB (1%)
    Title : English PGS
    Language : English
    Default : No
    Forced : No











    Enola.Holmes.2020.1080p.NF.WEB-DL.DDP5.1.Atmos.x264-MESSI.mkv - 5.9 GB
    Enola.Holmes.2020.1080p.NF.WEB-DL.DDP5.1.Atmos.x264_SkiesIT.mkv - 5.9 GB
    Enola Holmes - เอโนลา โฮล์มส์ [2020] - VV.mkv - 4236943635

  2. The Following 8 Users Say Thank You to Duckload.us For This Useful Post:

    amorn wichian (09-30-2020), jackjangri (09-28-2020), jangska (09-23-2020), kappa (10-10-2020), noi54 (09-25-2020), sawara (09-23-2020), Tatum03 (09-24-2020), Wesker_TOT (09-25-2020)

  3. #2
    Senior Member
    สมัครเมื่อ
    Jul 2013
    โพสต์
    1,299
    Thanks
    0
    Thanked 0 Times in 0 Posts
    ขอบคุณครับ

  4. #3
    Senior Member
    สมัครเมื่อ
    Oct 2013
    ที่อยู่
    Thailand
    โพสต์
    1,402
    Thanks
    1,270
    Thanked 0 Times in 0 Posts
    ขอบคุณมาก

  5. #4
    Senior Member
    สมัครเมื่อ
    Dec 2013
    โพสต์
    2,435
    Thanks
    4,360
    Thanked 0 Times in 0 Posts
    ขอบคุณนะครับ...

+ ตอบกลับกระทู้

ข้อมูลกระทู้

Users Browsing this Thread

ในขณะนี้มี 1 ท่านดูกระทู้อยู่. (0 สมาชิกและ 1 ผู้เยี่ยมชม)

     

กฎการโพสต์ข้อความ

  • ท่าน ไม่สามารถ ตั้งกระทู้ใหม่ได้
  • ท่าน ไม่สามารถ ตอบกระทู้ได้
  • ท่าน ไม่สามารถ แนบไฟล์ได้
  • ท่าน ไม่สามารถ แก้ไขข้อความโพสต์ได้
  • BB code สถานะ เปิด
  • Smilies สถานะ เปิด
  • [IMG] สถานะ เปิด
  • HTML สถานะ ปิด